Ода страсти / Ode to Passion (2020) WEBRip [H.264/720p-LQ]

Reply to topic
DL-List and Torrent activity
Size:  5.16 GB   |    Registered:  10 days   |    Completed:  0 times
Seeders:  1  [  0 KB/s  ]   Leechers:  3  [  0 KB/s  ]   Show peers in full details
 
     
 
 
Author Message

dybrik13 ®

Gender: Male

Longevity: 1 year 6 months

Posts: 7461

Location: Киев

Post 25-Jul-2020 04:20

[Quote]

Ода страсти / Ode to Passion- Производство: США / Jack Danini Productions
Жанр: Драма, мелодрама, мюзикл,
Режиссер: Jack Danini
Актеры: Джузеппе Баусильо, Julia Nightingale, Jeff Smith, Вики Миде, Kaylor Otwell, Marcus Harmon, Аль Пагано, Аль Наземиан, Keaton Eckhoff, Elijah Noll-Сюжет рассказывает историю одного молодого парня по имени Майкл, который живёт в Нью-Йорке. Однажды его вера в бога стала подвергаться тяжелому испытанию. Его девушка старательно сражается с зависимостью, и он пытается помочь ей и наставить на путь истинный. «Ода страсти» - это оригинальная музыкальная драма с 18-ю поп-рок песнями.
Дата мировой премьеры: 10 июля 2020
Продолжительность: 02:07:39
Качество видео: WEBRip
Перевод: Многоголосый закадровый, профессиональный (Синема УС)
Субтитры: Русские на песни (хардсаб)
Видео: AVC/H.264, 1280x536, ~5284 Kbps
Аудио: AC-3, 2 ch, 384 Kbps

MediaInfo:

Общее
Полное имя : D:\NNM\Ода страсти\Ode.to.Passion.2020.WEBRip.720p-LQ.mkv
Формат : Matroska
Версия формата : Version 2
Размер файла : 5,16 Гбайт
Продолжительность : 2 ч. 7 м.
Режим общего битрейта : Переменный
Общий поток : 5783 Кбит/сек
Программа кодирования : libmatroska 1.4.1
Библиотека кодирования : SolveigMM Matroska Muxer Version 1.0.1904.23
Видео
Идентификатор : 1
Формат : AVC
Формат/Информация : Advanced Video Codec
Профиль формата : High@L4.1
Настройки формата : CABAC / 4 Ref Frames
Параметр CABAC формата : Да
Параметр RefFrames формата : 4 кадра
Идентификатор кодека : V_MPEG4/ISO/AVC
Продолжительность : 2 ч. 7 м.
Вид битрейта : Переменный
Битрейт : 5284 Кбит/сек
Номинальный битрейт : 6000 Кбит/сек
Максимальный битрейт : 6000 Кбит/сек
Ширина : 1280 пикселей
Высота : 536 пикселей
Соотношение сторон : 2,40:1
Режим частоты кадров : Постоянный
Частота кадров : 23,976 (24000/1001) кадра/сек
Стандарт вещания : Component
Цветовое пространство : YUV
Субдискретизация насыщенности : 4:2:0
Битовая глубина : 8 бит
Тип развёртки : Прогрессивная
Бит/(Пиксели*Кадры) : 0.321
Размер потока : 4,71 Гбайт (91%)
Default : Нет
Forced : Нет
Цветовой диапазон : Limited
Основные цвета : BT.709
Характеристики трансфера : BT.709
Коэффициенты матрицы : BT.709
Аудио
Идентификатор : 2
Формат : AC-3
Формат/Информация : Audio Coding 3
Коммерческое название : Dolby Digital
Идентификатор кодека : A_AC3
Продолжительность : 2 ч. 7 м.
Вид битрейта : Постоянный
Битрейт : 384 Кбит/сек
Каналы : 2 канала
ChannelLayout : L R
Частота : 48,0 КГц
Частота кадров : 31,250 кадров/сек (1536 SPF)
Метод сжатия : С потерями
Размер потока : 351 Мбайт (7%)
Язык : Russian
ServiceKind/String : Complete Main
Default : Нет
Forced : Нет
Скриншоты: --Релиз группа: Filmgrad.Ru ->
[filmgrad.ru].t149679.torrent 
Torrent: Registered [ 2020-07-25 04:20 ] · B9E36AE88DCA7819B6AEB1467C6F492479F30482

Download .torrent

Download

27 KB

Status: checked
Completed: 0 times
Size: 5.16 GB
Оценка:  5 (Голосов: 1)
Поблагодарили: 0  Спасибо
terms.php
[Profile] [PM]
Display posts:    
Reply to topic

Current time is: 04-Aug 19:19

All times are UTC + 3



You cannot post new topics in this forum
You cannot reply to topics in this forum
You cannot edit your posts in this forum
You cannot delete your posts in this forum
You cannot vote in polls in this forum
You cannot attach files in this forum
You can download files in this forum