Доза счастья / A Dose of Happiness (2019) WEB-DL [H.264/1080p-LQ]

Reply to topic
DL-List and Torrent activity
Size:  3.49 GB   |    Registered:  11 days   |    Completed:  0 times
Seeders:  50  [  0 KB/s  ]   Leechers:  13  [  0 KB/s  ]   Show peers in full details
 
     
 
 
Author Message

dybrik13 ®

Gender: Male

Longevity: 1 year 6 months

Posts: 7462

Location: Киев

Post 24-Jul-2020 16:26

[Quote]

Доза счастья / A Dose of Happiness «A young woman's search for happiness takes her and her daughter on a road that leads to hell and back»- Производство: Болгария, Великобритания / No Blink ! Reason8 Films
Жанр: Драма
Режиссер: Яна Титова
Продюсер: Александар Алексеев, Ники Стоичков, Люсиус Барр
Актеры: Валентина Кэрол, Димитар Николов, Александр Алексеев, Асен Блатечки, Лидия Инджова, Ирмена Чичикова, Цветан Алексиев, София Борисова, Стела Борисова, Василь Бинев-Веселе 22 года, у нее нет образования и мужа, но есть маленькая дочка и желание сделать ее счастливой. Увы, девушка попадает в большие неприятности, и ей не сразу удается вырваться из порочного круга. Ее жизнь рушится, а самая страшная зависимость – героиновая – усугубляет все еще сильнее. Эта история о пути в бездну и еще одном пути обратно. После наступления темноты всегда есть свет, даже если кажется, что все потеряно.
Дата мировой премьеры: 8 ноября 2019
Цифровой релиз: 23 июля 2020, «Веста»
Продолжительность: 01:40:23
Качество видео: WEB-DL 1080p
Перевод: Профессиональный (многоголосый, закадровый) (iTunes)
Субтитры: Отсутствуют
Видео: AVC/H.264, 1920x804, (2.40:1), 4585 Kbps, 25 fps
Аудио: AC3, 6 ch, 384 kbps - Русский (MVO, iTunes)

MediaInfo:

General
Unique ID : 276038723248960664783292173881241286360 (0xCFAB1FD19256F6DFC96B2EBA7DE4B6D8)
Complete name : F:\A.Dose.of.Happiness.2019.WEB-DL.1080p.mkv
Format : Matroska
Format version : Version 4
File size : 3.49 GiB
Duration : 1 h 40 min
Overall bit rate : 4 972 kb/s
Movie name : A Dose of Happiness (2019)
Encoded date : UTC 2020-07-24 13:17:43
Writing application : mkvmerge v48.0.0 ('Fortress Around Your Heart') 64-bit
Writing library : libebml v1.4.0 + libmatroska v1.6.0
Cover : Yes
Attachments : cover.jpg
Video
ID : 1
Format : AVC
Format/Info : Advanced Video Codec
Format profile : High@L4
Format settings : CABAC / 5 Ref Frames
Format settings, CABAC : Yes
Format settings, Reference : 5 frames
Codec ID : V_MPEG4/ISO/AVC
Duration : 1 h 40 min
Bit rate : 4 585 kb/s
Width : 1 920 pixels
Height : 804 pixels
Display aspect ratio : 2.40:1
Frame rate mode : Constant
Frame rate : 25.000 FPS
Color space : YUV
Chroma subsampling : 4:2:0
Bit depth : 8 bits
Scan type : Progressive
Bits/(Pixel*Frame) : 0.119
Stream size : 3.22 GiB (92%)
Title : A Dose of Happiness (2019)
Language : English
Default : Yes
Forced : No
Color range : Limited
Color primaries : BT.709
Transfer characteristics : BT.709
Matrix coefficients : BT.709
Audio
ID : 2
Format : AC-3
Format/Info : Audio Coding 3
Commercial name : Dolby Digital
Codec ID : A_AC3
Duration : 1 h 40 min
Bit rate mode : Constant
Bit rate : 384 kb/s
Channel(s) : 6 channels
Channel layout : L R C LFE Ls Rs
Sampling rate : 48.0 kHz
Frame rate : 31.250 FPS (1536 SPF)
Compression mode : Lossy
Delay relative to video : -40 ms
Stream size : 276 MiB (8%)
Title : MVO, iTunes
Language : Russian
Service kind : Complete Main
Default : Yes
Forced : No
Menu
00:00:00.000 : en:Глава 1
00:08:23.520 : en:Глава 2
00:17:10.880 : en:Глава 3
00:26:44.080 : en:Глава 4
00:33:35.360 : en:Глава 5
00:39:21.960 : en:Глава 6
00:46:36.040 : en:Глава 7
00:54:46.240 : en:Глава 8
01:01:33.520 : en:Глава 9
01:08:38.440 : en:Глава 10
01:15:42.080 : en:Глава 11
01:22:14.920 : en:Глава 12
01:28:48.520 : en:Глава 13
01:34:08.520 : en:Глава 14
Скриншоты:
--Релиз группа: Filmgrad.Ru ->
[filmgrad.ru].t149663.torrent 
Torrent: Registered [ 2020-07-24 16:26 ] · 670A60F580D7553C54FB7E822212FF1840068055

Download .torrent

Download

18 KB

Status: checked
Completed: 0 times
Size: 3.49 GB
Оценка:  5 (Голосов: 1)
Поблагодарили: 0  Спасибо
terms.php
[Profile] [PM]
Display posts:    
Reply to topic

Current time is: 04-Aug 22:49

All times are UTC + 3



You cannot post new topics in this forum
You cannot reply to topics in this forum
You cannot edit your posts in this forum
You cannot delete your posts in this forum
You cannot vote in polls in this forum
You cannot attach files in this forum
You can download files in this forum