Мост (2020) WEBRip [H.264] (сезон 2, серии 1-10 из 10)

Reply to topic
DL-List and Torrent activity
Size:  7.22 GB   |    Registered:  10 days   |    Completed:  0 times
Seeders:  37  [  0 KB/s  ]   Leechers:  24  [  0 KB/s  ]   Show peers in full details
 
     
 
 
Author Message

dybrik13 ®

Gender: Male

Longevity: 1 year 6 months

Posts: 7451

Location: Киев

Post 24-Jul-2020 16:24

[Quote]

Мост- Производство: Россия / ВайТ Медиа
Жанр: детектив, криминал
Режиссер: Константин Статский, Максим Василенко
Актеры: Ингеборга Дапкунайте, Михаил Пореченков, Мария Скуратова , Алёна Кучкова, Денис Портнов, Юрий Ковалёв, Андрюс Паулавичюс, Оксана Базилевич, Илона Бродская, Павел Стонт и др.-После событий первого сезона проходит год. Вcе пpecтyплeния проuсxoдят в Сaнкт-Петеpбурге. Площaдкой, нa которой случается новoe преступление, становиться Вантовый мост через Петровский канал, расположенный между Васильевским островом и Комендантским проспектом. Телевидение Санкт-Петербурга рассказывает о новом преступлении: на прогулочном катере обнаружена странная композиция - три манекена и женский труп.
Возраст: 16+ (зрителям, достигшим 16 лет)
Продолжительность: ~00:46:00 серия
Качество видео: WEBRip
Видео: AVC/H.264, 1024x436 , ~2000 Kbps
Аудио: AC3, 2 ch, 192 Kbps

Mediainfo:

Общее
Уникальный идентификатор : 228411277888239122860650292700605924312 (0xABD66977006D7692A5A34879C6D543D8)
Полное имя : E:\Мост 2\01 серия_Мост-2_rip by_Aleksan55 .mkv
Формат : Matroska
Версия формата : Version 2
Размер файла : 727 Мбайт
Продолжительность : 46 м. 20 с.
Общий поток : 2194 Кбит/сек
Дата кодирования : UTC 2020-05-29 21:13:29
Программа кодирования : mkvmerge v7.8.0 ('River Man') 32bit built on Apr 3 2015 12:11:22
Библиотека кодирования : libebml v1.3.1 + libmatroska v1.4.2
Видео
Идентификатор : 1
Формат : AVC
Формат/Информация : Advanced Video Codec
Профиль формата : High@L4.1
Настройки формата : CABAC / 12 Ref Frames
Параметр CABAC формата : Да
Параметр RefFrames формата : 12 кадров
Идентификатор кодека : V_MPEG4/ISO/AVC
Продолжительность : 46 м. 20 с.
Битрейт : 2000 Кбит/сек
Ширина : 1024 пикселя
Высота : 436 пикселей
Соотношение сторон : 2,35:1
Режим частоты кадров : Постоянный
Частота кадров : 25,000 кадров/сек
Цветовое пространство : YUV
Субдискретизация насыщенности : 4:2:0
Битовая глубина : 8 бит
Тип развёртки : Прогрессивная
Бит/(Пиксели*Кадры) : 0.179
Размер потока : 649 Мбайт (89%)
Библиотека кодирования : x264 core 146 r2538 121396c
Настройки программы : cabac=1 / ref=12 / deblock=1:-2:-2 / analyse=0x3:0x133 / me=umh / subme=9 / psy=1 / psy_rd=1.00:0.15 / mixed_ref=0 / me_range=24 / chroma_me=1 / trellis=2 / 8x8dct=1 / cqm=0 / deadzone=21,11 / fast_pskip=0 / chroma_qp_offset=-3 / threads=4 / lookahead_threads=4 / sliced_threads=0 / nr=0 / decimate=0 / interlaced=0 / bluray_compat=0 / constrained_intra=0 / bframes=12 / b_pyramid=2 / b_adapt=2 / b_bias=0 / direct=3 / weightb=1 / open_gop=0 / weightp=2 / keyint=250 / keyint_min=25 / scenecut=40 / intra_refresh=0 / rc_lookahead=40 / rc=2pass / mbtree=1 / bitrate=2000 / ratetol=1.0 / qcomp=0.60 / qpmin=0 / qpmax=69 / qpstep=4 / cplxblur=20.0 / qblur=0.5 / ip_ratio=1.40 / aq=1:1.00
Default : Да
Forced : Нет
Цветовой диапазон : Limited
Основные цвета : BT.709
Характеристики трансфера : BT.709
Коэффициенты матрицы : BT.709
Аудио
Идентификатор : 2
Формат : AC-3
Формат/Информация : Audio Coding 3
Коммерческое название : Dolby Digital
Идентификатор кодека : A_AC3
Продолжительность : 46 м. 20 с.
Вид битрейта : Постоянный
Битрейт : 192 Кбит/сек
Каналы : 2 канала
ChannelLayout : L R
Частота : 48,0 КГц
Частота кадров : 31,250 кадров/сек (1536 SPF)
Метод сжатия : С потерями
Размер потока : 63,6 Мбайт (9%)
ServiceKind/String : Complete Main
Default : Да
Forced : Нет
Скриншоты:
--Релиз группа: Filmgrad.Ru ->
[filmgrad.ru].t149662.torrent 
Torrent: Registered [ 2020-07-24 16:24 ] · D12A5A6D7313B3FB80E6AA2572C473C9FF48BA54

Download .torrent

Download

38 KB

Status: checked
Completed: 0 times
Size: 7.22 GB
Оценка:  5 (Голосов: 1)
Поблагодарили: 0  Спасибо
terms.php
[Profile] [PM]
Display posts:    
Reply to topic

Current time is: 03-Aug 18:35

All times are UTC + 3



You cannot post new topics in this forum
You cannot reply to topics in this forum
You cannot edit your posts in this forum
You cannot delete your posts in this forum
You cannot vote in polls in this forum
You cannot attach files in this forum
You can download files in this forum