История Beastie Boys / Beastie Boys Story (2020) WEB-DL [H.264/1080p]

Reply to topic
DL-List and Torrent activity
Size:  9.34 GB   |    Registered:  11 days   |    Completed:  0 times
Seeders:  41  [  0 KB/s  ]   Leechers:  7  [  0 KB/s  ]   Show peers in full details
 
     
 
 
Author Message

dybrik13 ®

Gender: Male

Longevity: 1 year 6 months

Posts: 7462

Location: Киев

Post 24-Jul-2020 16:20

[Quote]

История Beastie Boys / Beastie Boys Story- Производство: США, Fresh Bread, Oscilloscope, Polygram
Жанр: Документальный, биография, музыка
Режиссер: Спайк Джонс
Участники: Адам Хоровиц, Майк Даймонд-Майк Даймонд и Адам Хоровиц рассказывают о становлении группы и о дружбе длиною в 40 лет.
Продолжительность: 01:59:25
Качество видео: WEB-DL
Перевод: Многоголосый закадровый, профессиональный (IdeaFilm)
Субтитры: Русские (форс), Русские (полные), Украинские (полные), Английские (SDH)
Видео: AVC/H.264, 1920x1080, ~10,0 Mbps
Аудио#1: AC3, 6 ch, 384 Kbps | Русский
Аудио#2: E-AC3, 6 ch, 768 Kbps | Английский

Mediainfo:

Общее
Уникальный идентификатор : 62021088385909063705530003336668321324 (0x2EA8D3BED495BAD3DE1125415CA7162C)
Полное имя : F:\КИНО\Beastie.Boys.Story.2020.1080p.WEB-DL.DD5.1.H.264-CasStudio.mkv
Формат : Matroska
Версия формата : Version 4
Размер файла : 9,34 Гбайт
Продолжительность : 1 ч. 59 м.
Общий поток : 11,2 Мбит/сек
Название фильма : История Beastie Boys | Beastie Boys Story (2020) - Release by whip93 x CasStudio
Дата кодирования : UTC 2020-05-08 09:19:29
Программа кодирования : mkvmerge v45.0.0 ('Heaven in Pennies') 64-bit
Библиотека кодирования : libebml v1.3.10 + libmatroska v1.5.2
Видео
Идентификатор : 1
Формат : AVC
Формат/Информация : Advanced Video Codec
Профиль формата : High@L4
Настройки формата : CABAC / 4 Ref Frames
Параметр CABAC формата : Да
Параметр RefFrames формата : 4 кадра
Идентификатор кодека : V_MPEG4/ISO/AVC
Продолжительность : 1 ч. 59 м.
Битрейт : 10,0 Мбит/сек
Ширина : 1 920 пикселей
Высота : 1 080 пикселей
Соотношение сторон : 16:9
Режим частоты кадров : Постоянный
Частота кадров : 23,976 (24000/1001) кадра/сек
Цветовое пространство : YUV
Субдискретизация насыщенности : 4:2:0
Битовая глубина : 8 бит
Тип развёртки : Прогрессивная
Бит/(Пиксели*Кадры) : 0.202
Размер потока : 8,38 Гбайт (90%)
Язык : English
Default : Да
Forced : Нет
Цветовой диапазон : Limited
Основные цвета : BT.709
Характеристики трансфера : BT.709
Коэффициенты матрицы : BT.709
Аудио #1
Идентификатор : 2
Формат : AC-3
Формат/Информация : Audio Coding 3
Коммерческое название : Dolby Digital
Идентификатор кодека : A_AC3
Продолжительность : 1 ч. 59 м.
Вид битрейта : Постоянный
Битрейт : 384 Кбит/сек
Каналы : 6 каналов
Channel layout : L R C LFE Ls Rs
Частота : 48,0 КГц
Частота кадров : 31,250 кадров/сек (1536 SPF)
Метод сжатия : С потерями
Размер потока : 328 Мбайт (3%)
Заголовок : MVO (IdeaFilm)
Язык : Russian
Service kind : Complete Main
Default : Да
Forced : Нет
Аудио #2
Идентификатор : 3
Формат : E-AC-3 JOC
Формат/Информация : Enhanced AC-3 with Joint Object Coding
Коммерческое название : Dolby Digital Plus with Dolby Atmos
Идентификатор кодека : A_EAC3
Продолжительность : 1 ч. 59 м.
Вид битрейта : Постоянный
Битрейт : 768 Кбит/сек
Каналы : 6 каналов
Channel layout : L R C LFE Ls Rs
Частота : 48,0 КГц
Частота кадров : 31,250 кадров/сек (1536 SPF)
Метод сжатия : С потерями
Размер потока : 656 Мбайт (7%)
Заголовок : Original
Язык : English
Service kind : Complete Main
Default : Нет
Forced : Нет
Complexity index : 16
Number of dynamic objects : 15
Bed channel count : 1 канал
Bed channel configuration : LFE
Текст #1
Идентификатор : 4
Формат : UTF-8
Идентификатор кодека : S_TEXT/UTF8
Идентификатор кодека/Информация : UTF-8 Plain Text
Продолжительность : 1 ч. 50 м.
Битрейт : 18 бит/сек
Count of elements : 255
Размер потока : 14,7 Кбайт (0%)
Заголовок : Forced
Язык : Russian
Default : Да
Forced : Нет
Текст #2
Идентификатор : 5
Формат : UTF-8
Идентификатор кодека : S_TEXT/UTF8
Идентификатор кодека/Информация : UTF-8 Plain Text
Продолжительность : 1 ч. 58 м.
Битрейт : 161 бит/сек
Count of elements : 2238
Размер потока : 140 Кбайт (0%)
Заголовок : Елена Цехмейструк
Язык : Russian
Default : Нет
Forced : Нет
Текст #3
Идентификатор : 6
Формат : UTF-8
Идентификатор кодека : S_TEXT/UTF8
Идентификатор кодека/Информация : UTF-8 Plain Text
Продолжительность : 1 ч. 58 м.
Битрейт : 152 бит/сек
Count of elements : 2238
Размер потока : 133 Кбайт (0%)
Заголовок : Олена Цехмейструк
Язык : Ukrainian
Default : Нет
Forced : Нет
Текст #4
Идентификатор : 7
Формат : UTF-8
Идентификатор кодека : S_TEXT/UTF8
Идентификатор кодека/Информация : UTF-8 Plain Text
Продолжительность : 1 ч. 57 м.
Битрейт : 118 бит/сек
Count of elements : 2333
Размер потока : 102 Кбайт (0%)
Заголовок : Original (SDH)
Язык : English
Default : Нет
Forced : Нет
Скриншоты:

Дополнительные скриншоты:

--Релиз группа: Filmgrad.Ru ->
[filmgrad.ru].t149661.torrent 
Torrent: Registered [ 2020-07-24 16:20 ] · 5D2A339BABDF82F72E7600CF8278E2A1ABAE2016

Download .torrent

Download

48 KB

Status: checked
Completed: 0 times
Size: 9.34 GB
Оценка:  5 (Голосов: 1)
Поблагодарили: 0  Спасибо
terms.php
[Profile] [PM]
Display posts:    
Reply to topic

Current time is: 04-Aug 22:38

All times are UTC + 3



You cannot post new topics in this forum
You cannot reply to topics in this forum
You cannot edit your posts in this forum
You cannot delete your posts in this forum
You cannot vote in polls in this forum
You cannot attach files in this forum
You can download files in this forum