Неизбранные дороги / The Roads Not Taken (2020) WEB-DLRip

Reply to topic
DL-List and Torrent activity
Size:  1.46 GB   |    Registered:  10 days   |    Completed:  0 times
Seeders:  10  [  0 KB/s  ]   Leechers:  1  [  0 KB/s  ]   Show peers in full details
 
     
 
 
Author Message

dybrik13 ®

Gender: Male

Longevity: 1 year 6 months

Posts: 7451

Location: Киев

Post 24-Jul-2020 15:08

[Quote]

Неизбранные дороги / The Roads Not Taken- Производство: Великобритания, Швеция, США / Adventure Pictures, BBC Films, British Film Institute
Жанр: Драма
Режиссер: Салли Поттер
Актеры: Хавьер Бардем, Элль Фэннинг, Сальма Хайек, Бранка Катич, Лора Линни, Дмитрий Андреас, Катя Муллова-Брайнд, Милена Чарнтке, Дебора Уэстон, Аарон Джошуа-День, обещавший Лео лишь рутину, становится точкой пересечения множества судеб. Богемная жизнь, непростая карьера музыканта на Манхэттене, безумная любовь, рождение дочери и бегство на греческий остров, полный соблазнов. Сегодня всё это как будто происходит вновь…
Возраст: 18+ (зрителям, достигшим 18 лет. запрещено для детей)
Рейтинг MPAA: R (лицам до 17 лет обязательно присутствие взрослого)
Дата мировой премьеры: 26 февраля 2020
Цифровой релиз: 28 апреля 2020

Продолжительность: 01:25:11
Качество видео: WEB-DLRip
Перевод: Дублированный (iTunes)
Субтитры: Отсутствуют
Видео: XviD, 720x304, ~2062 Kbps
Аудио: AC-3, 6 ch, 384 Kbps

MediaInfo:

Общее
Полное имя : D:\NNM\Неизбранные дороги\The.Roads.Not.Taken.2020.WEB-DLRip.avi
Формат : AVI
Формат/Информация : Audio Video Interleave
Размер файла : 1,46 Гбайт
Продолжительность : 1 ч. 25 м.
Общий поток : 2455 Кбит/сек
Программа кодирования : VirtualDubMod 1.5.10.3 | www.virtualdub-fr.org || (build 2550/release)
Библиотека кодирования : VirtualDubMod build 2550/release
Видео
Идентификатор : 0
Формат : MPEG-4 Visual
Профиль формата : Advanced Simple@L5
Настройки формата : BVOP1 / Custom Matrix
Параметр BVOP формата : 1
Параметр QPel формата : Нет
Параметр GMC формата : Без точки перехода
Параметр матрицы формата : Выборочная
Идентификатор кодека : XVID
Идентификатор кодека/Подсказка : XviD
Продолжительность : 1 ч. 25 м.
Битрейт : 2062 Кбит/сек
Ширина : 720 пикселей
Высота : 304 пикселя
Соотношение сторон : 2,35:1
Частота кадров : 24,000 кадра/сек
Цветовое пространство : YUV
Субдискретизация насыщенности : 4:2:0
Битовая глубина : 8 бит
Тип развёртки : Прогрессивная
Метод сжатия : С потерями
Бит/(Пиксели*Кадры) : 0.392
Размер потока : 1,23 Гбайт (84%)
Библиотека кодирования : XviD 73
Аудио
Идентификатор : 1
Формат : AC-3
Формат/Информация : Audio Coding 3
Коммерческое название : Dolby Digital
Идентификатор кодека : 2000
Продолжительность : 1 ч. 25 м.
Вид битрейта : Постоянный
Битрейт : 384 Кбит/сек
Каналы : 6 каналов
ChannelLayout : L R C LFE Ls Rs
Частота : 48,0 КГц
Частота кадров : 31,250 кадров/сек (1536 SPF)
Метод сжатия : С потерями
Размер потока : 234 Мбайт (16%)
Выравнивание : Разделение по промежуткам
Продолжительность промежутка : 42 мс. (1,00 видеокадр)
Время предзагрузки промежутка : 500 мс.
ServiceKind/String : Complete Main
Скриншоты: --Релиз группа: Filmgrad.Ru ->
[filmgrad.ru].t149660.torrent 
Torrent: Registered [ 2020-07-24 15:08 ] · 41995B0F05789946B29543A8FC0C576D8EAD94B7

Download .torrent

Download

15 KB

Status: checked
Completed: 0 times
Size: 1.46 GB
Оценка:  5 (Голосов: 1)
Поблагодарили: 0  Спасибо
terms.php
[Profile] [PM]
Display posts:    
Reply to topic

Current time is: 03-Aug 18:25

All times are UTC + 3



You cannot post new topics in this forum
You cannot reply to topics in this forum
You cannot edit your posts in this forum
You cannot delete your posts in this forum
You cannot vote in polls in this forum
You cannot attach files in this forum
You can download files in this forum