Гамония: Страна грёз / Hayaller Ulkesi: Gamonya (2020) WEB-DLRip [DVO]

Reply to topic
DL-List and Torrent activity
Size:  4.11 GB   |    Registered:  12 days   |    Completed:  1 time
Seeders:  9  [  0 KB/s  ]   Leechers:  4  [  0 KB/s  ]   Show peers in full details
 
     
 
 
Author Message

dybrik13 ®

Gender: Male

Longevity: 1 year 6 months

Posts: 7461

Location: Киев

Post 23-Jul-2020 14:42

[Quote]

Гамония: Страна грёз / Hayaller Ulkesi: Gamonya- Производство: Турция / BKM Film, BKM, Besiktas Kültür Merkezi (BKM)
Жанр: фэнтези, приключения, семейный
Режиссер: Tugçe Soysop
Актеры: Берат Эфэ Парлар, Eda Doger, Ахмет Рифат Шунгар, Али Уяндыран, Бурсу Алтин, Dora Dalgic, Zeynep Çelik, Alperen Efe Esmer, Таха Сёнмезисик, Arda Tasarcan-Юный Умут живет со своим дедушкой Ахметом. Парень совершенно не умеет мечтать. Однажды горе заставляет Умута столкнуться с представителями волшебной страны - Гамонии. Теперь на него возложена миссия по спасению этого чудесного мира.
Дата мировой премьеры: 10 января 2020
Продолжительность: 01:40:37
Качество видео: WEB-DLRip
Перевод: Двухголосый любительский (Синема УС)
Субтитры: Отсутствуют
Видео: AVC/H.264, 1280x692, ~5460 Kbps
Аудио: AAC, 2 ch, 384 Kbps - Русский (DVO)

MediaInfo:

General
Unique ID : 228188073082893398522175673098396108875 (0xABAB6C9E48F2CEBF940B1B852E26084B)
Complete name : H:\Фильмы\Hayaller.Ulkesi.Gamonya.2020.P.WEB-DL.72Op.mkv
Format : Matroska
Format version : Version 2
File size : 4.11 GiB
Duration : 1 h 40 min
Overall bit rate mode : Variable
Overall bit rate : 5 844 kb/s
Encoded date : UTC 2020-07-21 12:14:33
Writing application : mkvmerge v8.3.0 ('Over the Horizon') 64bit
Writing library : libebml v1.3.1 + libmatroska v1.4.2
Video
ID : 1
Format : AVC
Format/Info : Advanced Video Codec
Format profile : High@L4.1
Format settings : CABAC / 4 Ref Frames
Format settings, CABAC : Yes
Format settings, Reference : 4 frames
Codec ID : V_MPEG4/ISO/AVC
Duration : 1 h 40 min
Bit rate mode : Variable
Bit rate : 5 460 kb/s
Nominal bit rate : 6 000 kb/s
Maximum bit rate : 6 000 kb/s
Width : 1 280 pixels
Height : 692 pixels
Display aspect ratio : 1.85:1
Frame rate mode : Constant
Frame rate : 23.976 (24000/1001) FPS
Standard : Component
Color space : YUV
Chroma subsampling : 4:2:0
Bit depth : 8 bits
Scan type : Progressive
Bits/(Pixel*Frame) : 0.257
Stream size : 3.84 GiB (93%)
Writing library : x264 core 155
Encoding settings : cabac=1 / ref=4 / deblock=1:0:0 / analyse=0x3:0x3 / me=dia / subme=1 / psy=1 / psy_rd=1.00:0.00 / mixed_ref=0 / me_range=16 / chroma_me=1 / trellis=0 / 8x8dct=1 / cqm=1 / deadzone=21,11 / fast_pskip=1 / chroma_qp_offset=0 / threads=22 / lookahead_threads=3 / sliced_threads=0 / slices=1 / nr=0 / decimate=1 / interlaced=0 / minigop=0 / stitchable=1 / constrained_intra=0 / bframes=2 / b_pyramid=0 / b_adapt=0 / b_bias=0 / direct=1 / weightb=1 / open_gop=1 / weightp=0 / keyint=240 / keyint_min=23 / scenecut=40 / intra_refresh=0 / rc_lookahead=0 / rc=cbr / mbtree=0 / bitrate=6000 / ratetol=1.0 / qcomp=0.60 / qpmin=1 / qpmax=69 / qpstep=4 / vbv_maxrate=6000 / vbv_bufsize=6000 / nal_hrd=vbr / filler=0 / ip_ratio=1.40 / pb_ratio=1.30 / aq=1:1.00
Default : Yes
Forced : No
Color range : Limited
Color primaries : BT.709
Transfer characteristics : BT.709
Matrix coefficients : BT.709
Audio
ID : 2
Format : AAC Main
Format/Info : Advanced Audio Codec
Codec ID : A_AAC-1
Duration : 1 h 40 min
Bit rate : 384 kb/s
Channel(s) : 2 channels
Channel layout : L R
Sampling rate : 48.0 kHz
Frame rate : 46.875 FPS (1024 SPF)
Compression mode : Lossy
Stream size : 275 MiB (7%)
Default : Yes
Forced : No
Скриншоты:
--Релиз группа: Filmgrad.Ru ->
[filmgrad.ru].t149650.torrent 
Torrent: Registered [ 2020-07-23 14:42 ] · 24D3C747ABB93D90EF145AAA0D50FDDE66A682A1

Download .torrent

Download

329 KB

Status: checked
Completed: 1 times
Size: 4.11 GB
Оценка:  5 (Голосов: 1)
Поблагодарили: 0  Спасибо
terms.php
[Profile] [PM]
Display posts:    
Reply to topic

Current time is: 04-Aug 19:58

All times are UTC + 3



You cannot post new topics in this forum
You cannot reply to topics in this forum
You cannot edit your posts in this forum
You cannot delete your posts in this forum
You cannot vote in polls in this forum
You cannot attach files in this forum
You can download files in this forum