Такая милая девушка, как ты / A Nice Girl Like You (2020) WEB-DLRip [H.264/1080p-LQ]

Reply to topic
DL-List and Torrent activity
Size:  4.93 GB   |    Registered:  13 days   |    Completed:  1 time

Seeder not seen: 8 days

Leechers:  4  [  0 KB/s  ]   Show peers in full details
 
     
 
 
Author Message

dybrik13 ®

Gender: Male

Longevity: 1 year 6 months

Posts: 7462

Location: Киев

Post 22-Jul-2020 18:45

[Quote]

Такая милая девушка, как ты / A Nice Girl Like You- Производство: США / SPR Media, Affirmative Entertainment, CaliWood Pictures
Жанр: Комедия, мелодрама
Режиссер: Крис Риделл, Ник Риделл
Актеры: Люси Хейл, Леонидас Гулаптис, Минди Кон, Адхир Калян, Джеки Круз, Stephen Friedrich, Skye P. Marshall, Leah McKendrick, Jina Panebianco, Nadia Quinn-Бывший парень назвал скрипачку Люси замкнутой, и она составила список безумных поступков, которые должна совершить.
Теперь её ждёт захватывающее путешествие в поисках самой себя.
Дата мировой премьеры: 17 июля 2020
Продолжительность: 01:33:36
Качество видео: WEB-DLRip
Перевод: Многоголосый закадровый, любительский (AlphaProject)
Субтитры: Отсутствуют
Видео: AVC/H.264, 1920x800, ~7012 Kbps
Аудио: AC3, 2 ch, 384 Kbps

MediaInfo:

Общее
Полное имя : D:\NNM\Такая милая девушка, как ты\A.Nice.Girl.Like.You.2020.WEB-DLRip.1080p-LQ.mkv
Формат : Matroska
Версия формата : Version 2
Размер файла : 4,93 Гбайт
Продолжительность : 1 ч. 33 м.
Режим общего битрейта : Переменный
Общий поток : 7546 Кбит/сек
Программа кодирования : libmatroska 1.4.1
Библиотека кодирования : SolveigMM Matroska Muxer Version 1.0.1904.23
Видео
Идентификатор : 1
Формат : AVC
Формат/Информация : Advanced Video Codec
Профиль формата : High@L4.1
Настройки формата : CABAC / 4 Ref Frames
Параметр CABAC формата : Да
Параметр RefFrames формата : 4 кадра
Идентификатор кодека : V_MPEG4/ISO/AVC
Продолжительность : 1 ч. 33 м.
Вид битрейта : Переменный
Битрейт : 7012 Кбит/сек
Номинальный битрейт : 8000 Кбит/сек
Максимальный битрейт : 8000 Кбит/сек
Ширина : 1920 пикселей
Высота : 800 пикселей
Соотношение сторон : 2,40:1
Режим частоты кадров : Постоянный
Частота кадров : 23,976 (24000/1001) кадра/сек
Стандарт вещания : Component
Цветовое пространство : YUV
Субдискретизация насыщенности : 4:2:0
Битовая глубина : 8 бит
Тип развёртки : Прогрессивная
Бит/(Пиксели*Кадры) : 0.190
Размер потока : 4,58 Гбайт (93%)
Default : Нет
Forced : Нет
Цветовой диапазон : Limited
Основные цвета : BT.709
Характеристики трансфера : BT.709
Коэффициенты матрицы : BT.709
Аудио
Идентификатор : 2
Формат : AC-3
Формат/Информация : Audio Coding 3
Коммерческое название : Dolby Digital
Идентификатор кодека : A_AC3
Продолжительность : 1 ч. 33 м.
Вид битрейта : Постоянный
Битрейт : 384 Кбит/сек
Каналы : 2 канала
ChannelLayout : L R
Частота : 48,0 КГц
Частота кадров : 31,250 кадров/сек (1536 SPF)
Метод сжатия : С потерями
Размер потока : 257 Мбайт (5%)
Язык : Russian
ServiceKind/String : Complete Main
Default : Нет
Forced : Нет
Скриншоты: --Релиз группа: Filmgrad.Ru ->
[filmgrad.ru].t149644.torrent 
Torrent: Registered [ 2020-07-22 18:45 ] · 2571BA995F6882EAC5AFFCA9FF6AA23F1D7D29F9

Download .torrent

Download

26 KB

Status: checked
Completed: 1 times
Size: 4.93 GB
Оценка:  5 (Голосов: 1)
Поблагодарили: 0  Спасибо
terms.php
[Profile] [PM]
Display posts:    
Reply to topic

Current time is: 04-Aug 22:34

All times are UTC + 3



You cannot post new topics in this forum
You cannot reply to topics in this forum
You cannot edit your posts in this forum
You cannot delete your posts in this forum
You cannot vote in polls in this forum
You cannot attach files in this forum
You can download files in this forum