Отчаянная / Desperados (2020) WEB-DLRip [H.264/1080p-LQ]

Reply to topic
DL-List and Torrent activity
Size:  5.55 GB   |    Registered:  19 days   |    Completed:  0 times

Seeder not seen: Never

Leechers:  13  [  0 KB/s  ]   Show peers in full details
 
     
 
 
Author Message

dybrik13 ®

Gender: Male

Longevity: 1 year 6 months

Posts: 7554

Location: Киев

Post 22-Jul-2020 17:45

[Quote]

Отчаянная / Desperados- Производство: Аргентина, США / Good Universe, Lost City, MXN Entertainment
Жанр: Мелодрама, комедия
Режиссер: Лорен Пальмиджано
Актеры: Назим Педрад, Анна Кэмп, Сара Бёрнс, Ламорн Моррис, Робби Амелл, Хизер Грэм, Джессика Чаффин, Иззи Диаз, Родриго Франко, Скотт Роджерс-Неудачница Уэсли наконец-то встретила идеального парня. Но после приятной ночи Джаред внезапно пропадает и уже пять дней не отвечает ни на звонки, ни на сообщения. Хорошенько приняв на грудь в компании подруг, девушка отправляет парню ругательный e-mail, а потом выясняет, он попал в аварию в Мексике, только что вышел из комы и лежит в больнице. Прихватив тех самых подружниц, Уэсли отправляется в Мексику, чтобы успеть стереть злополучное письмо, пока Джаред не добрался до своих телефона и ноутбука.
Дата мировой премьеры: 3 июля 2020
Продолжительность: 01:46:40
Качество видео: WEB-DLRip
Перевод: Многоголосый закадровый, любительский (MUZOBOZ)
Субтитры: Отсутствуют
Видео: AVC/H.264, 1920x960, ~6916 Kbps
Аудио: AC3, 2 ch, 384 Kbps

MediaInfo:

Общее
Полное имя : D:\NNM\Отчаянная\Desperados.2020.WEB-DLRip.1080p-LQ.mkv
Формат : Matroska
Версия формата : Version 2
Размер файла : 5,55 Гбайт
Продолжительность : 1 ч. 46 м.
Режим общего битрейта : Переменный
Общий поток : 7448 Кбит/сек
Программа кодирования : libmatroska 1.4.1
Библиотека кодирования : SolveigMM Matroska Muxer Version 1.0.1904.23
Видео
Идентификатор : 1
Формат : AVC
Формат/Информация : Advanced Video Codec
Профиль формата : High@L4.1
Настройки формата : CABAC / 4 Ref Frames
Параметр CABAC формата : Да
Параметр RefFrames формата : 4 кадра
Идентификатор кодека : V_MPEG4/ISO/AVC
Продолжительность : 1 ч. 46 м.
Вид битрейта : Переменный
Битрейт : 6916 Кбит/сек
Номинальный битрейт : 8000 Кбит/сек
Максимальный битрейт : 8000 Кбит/сек
Ширина : 1920 пикселей
Высота : 960 пикселей
Соотношение сторон : 2,000
Режим частоты кадров : Постоянный
Частота кадров : 23,976 (24000/1001) кадра/сек
Стандарт вещания : Component
Цветовое пространство : YUV
Субдискретизация насыщенности : 4:2:0
Битовая глубина : 8 бит
Тип развёртки : Прогрессивная
Бит/(Пиксели*Кадры) : 0.156
Размер потока : 5,15 Гбайт (93%)
Default : Нет
Forced : Нет
Цветовой диапазон : Limited
Основные цвета : BT.709
Характеристики трансфера : BT.709
Коэффициенты матрицы : BT.709
Аудио
Идентификатор : 2
Формат : AC-3
Формат/Информация : Audio Coding 3
Коммерческое название : Dolby Digital
Идентификатор кодека : A_AC3
Продолжительность : 1 ч. 46 м.
Вид битрейта : Постоянный
Битрейт : 384 Кбит/сек
Каналы : 2 канала
ChannelLayout : L R
Частота : 48,0 КГц
Частота кадров : 31,250 кадров/сек (1536 SPF)
Метод сжатия : С потерями
Размер потока : 293 Мбайт (5%)
Язык : Russian
ServiceKind/String : Complete Main
Default : Нет
Forced : Нет
Скриншоты: --Релиз группа: Filmgrad.Ru ->
[filmgrad.ru].t149642.torrent 
Torrent: Registered [ 2020-07-22 17:45 ] · BB89037AFC61F202F592C52542FF241BCFEEE456

Download .torrent

Download

29 KB

Status: checked
Completed: 0 times
Size: 5.55 GB
Оценка:  5 (Голосов: 1)
Поблагодарили: 0  Спасибо
terms.php
[Profile] [PM]
Display posts:    
Reply to topic

Current time is: 11-Aug 06:18

All times are UTC + 3



You cannot post new topics in this forum
You cannot reply to topics in this forum
You cannot edit your posts in this forum
You cannot delete your posts in this forum
You cannot vote in polls in this forum
You cannot attach files in this forum
You can download files in this forum