Заключённый №1: Восхождение Дэнни Трехо / Inmate #1: The Rise of Danny Trejo (2019) WEB-DLRip [H.264/720p-LQ]

Reply to topic
DL-List and Torrent activity
Size:  4.11 GB   |    Registered:  16 days   |    Completed:  0 times

Seeder not seen: Never

Leechers:  17  [  0 KB/s  ]   Show peers in full details
 
     
 
 
Author Message

dybrik13 ®

Gender: Male

Longevity: 1 year 5 months

Posts: 7155

Location: Киев

Post 28-Jun-2020 19:31

[Quote]

Заключённый №1: Восхождение Дэнни Трехо / Inmate #1: The Rise of Danny Trejo- Производство: Канада / Abrupt Films, Score G Production Films
Жанр: Документальный, биография
Режиссер: Бретт Харви
Актеры: Дэнни Трехо, Craig Balkam, Jhonnie Harris, Донал Лог, Чич Марин, Max Martinez, Мишель Родригес, Роберт Родригес, Даниэль Трехо, Гилберт Трехо-Актёр Дэнни Трехо, его друзья, родные и коллеги рассказывают,
как он проделал удивительный путь от осуждённого правонарушителя до звезды Голливуда...
Продолжительность: 01:43:53
Качество видео: WEB-DLRip
Перевод: Многоголосый закадровый, профессиональный (Синема УС)
Субтитры: Отсутствуют
Видео: AVC/H.264, 1280x640, ~5164 Kbps
Аудио: AC-3, 2 ch, 384 Kbps

MediaInfo:

Общее
Полное имя : D:\NNM\Заключённый\Inmate.001.The.Rise.of.Danny.Trejo.2019.WEB-DLRip.720p-LQ.mkv
Формат : Matroska
Версия формата : Version 2
Размер файла : 4,11 Гбайт
Продолжительность : 1 ч. 43 м.
Режим общего битрейта : Переменный
Общий поток : 5661 Кбит/сек
Программа кодирования : libmatroska 1.4.1
Библиотека кодирования : SolveigMM Matroska Muxer Version 1.0.1904.23
Видео
Идентификатор : 1
Формат : AVC
Формат/Информация : Advanced Video Codec
Профиль формата : High@L4.1
Настройки формата : CABAC / 4 Ref Frames
Параметр CABAC формата : Да
Параметр RefFrames формата : 4 кадра
Идентификатор кодека : V_MPEG4/ISO/AVC
Продолжительность : 1 ч. 43 м.
Вид битрейта : Переменный
Битрейт : 5164 Кбит/сек
Номинальный битрейт : 6000 Кбит/сек
Максимальный битрейт : 6000 Кбит/сек
Ширина : 1280 пикселей
Высота : 640 пикселей
Соотношение сторон : 2,000
Режим частоты кадров : Постоянный
Частота кадров : 23,976 (24000/1001) кадра/сек
Стандарт вещания : Component
Цветовое пространство : YUV
Субдискретизация насыщенности : 4:2:0
Битовая глубина : 8 бит
Тип развёртки : Прогрессивная
Бит/(Пиксели*Кадры) : 0.263
Размер потока : 3,75 Гбайт (91%)
Default : Нет
Forced : Нет
Цветовой диапазон : Limited
Основные цвета : BT.709
Характеристики трансфера : BT.709
Коэффициенты матрицы : BT.709
Аудио
Идентификатор : 2
Формат : AC-3
Формат/Информация : Audio Coding 3
Коммерческое название : Dolby Digital
Идентификатор кодека : A_AC3
Продолжительность : 1 ч. 43 м.
Вид битрейта : Постоянный
Битрейт : 384 Кбит/сек
Каналы : 2 канала
ChannelLayout : L R
Частота : 48,0 КГц
Частота кадров : 31,250 кадров/сек (1536 SPF)
Метод сжатия : С потерями
Размер потока : 285 Мбайт (7%)
Язык : Russian
ServiceKind/String : Complete Main
Default : Нет
Forced : Нет
Скриншоты:

Скриншоты дополнительно:




--Релиз группа: Filmgrad.Ru ->
[filmgrad.ru].t149264.torrent 
Torrent: Registered [ 2020-06-28 19:31 ] · 1E6571A80FA727B2A4D3B8F89D007BAB76F1D811

Download .torrent

Download

21 KB

Status: checked
Completed: 0 times
Size: 4.11 GB
Оценка:  5 (Голосов: 1)
Поблагодарили: 0  Спасибо
terms.php
[Profile] [PM]
Display posts:    
Reply to topic

Current time is: 15-Jul 09:08

All times are UTC + 3



You cannot post new topics in this forum
You cannot reply to topics in this forum
You cannot edit your posts in this forum
You cannot delete your posts in this forum
You cannot vote in polls in this forum
You cannot attach files in this forum
You can download files in this forum