Гундала / Gundala (Джоко Анвар) [2019 г., Боевик, фантастика, драма, BDRemux 1080p] MVO (MUZOBOZ)

Reply to topic
DL-List and Torrent activity
Size:  26.85 GB   |    Registered:  8 days   |    Completed:  0 times
Seeders:  39  [  0 KB/s  ]   Leechers:  16  [  0 KB/s  ]   Show peers in full details
 
     
 
 
Author Message

kneht ®

Gender: Male

Longevity: 10 months 11 days

Posts: 695

Location: СССР

Post 28-Jun-2020 18:55

[Quote]

--Гундала / Gundala-- Год выхода: 2019
Страна: Индонезия
Жанр: Боевик, фантастика, драма
Продолжительность: 02:00:07
Перевод: Любительский (многоголосый,закадровый) [MUZOBOZ]
Субтитры: Английские-Режиссер: Джоко Анвар-В ролях: Абимана Арьясатья, Тара Басро, Бронт Паларэ, Арио Баю, Лукман Сарди, Арсвенди Насутион, Pritt Timothy, Aqi Singgih, Донни Аламшя, Tanta Ginting-О фильме: Ещё ребенком Санчака потерял родителей — отец погиб, отстаивая права рабочих, а мать уехала на заработки и не вернулась — с тех пор мальчик выживал самостоятельно. Нелегкая жизнь на улице научила его не только эффективно махать ногами, а и думать в первую очередь о собственной безопасности, но когда волна насилия захлёстывает город, мужчине приходится встать на сторону униженных и оскорбленных. А поскольку в результате удара молнии наш герой получил свехспособности, врагам простого народа придётся несладко.- -Качество: BDRemux 1080p
Формат: MKV
Видео кодек: H.264
Аудио кодек: AC3, DTS
Видео: AVC, 1920x1080 (16:9), 23.976 fps, 27.9 Mb/s
Аудио 1: AC3, 48.0 kHz, 2 ch, 192 kb/s (Russian)
Аудио 2: DTS, 48.0 kHz, 6 ch, 1 990 kb/s (German)
Аудио 3: DTS, 48.0 kHz, 6 ch, 1 933 kb/s (Indonesian)-Рекламы нет | Сэмпл
-

MI

Общее
Уникальный идентификатор                 : 183935193082105663685685788541916049049 (0x8A60A12EAB0394CFA52307BFAFE46E99)
Полное имя                               : Gundala.2019.BDRemux.1080p.mkv
Формат                                   : Matroska
Версия формата                           : Version 4
Размер файла                             : 26,8 Гбайт
Продолжительность                        : 2 ч. 0 м.
Режим общего битрейта                    : Переменный
Общий поток                              : 32,0 Мбит/сек
Дата кодирования                         : UTC 2020-06-24 08:51:58
Программа кодирования                    : mkvmerge v8.3.0 ('Over the Horizon') 64bit
Библиотека кодирования                   : libebml v1.3.1 + libmatroska v1.4.2
Видео
Идентификатор                            : 1
Формат                                   : AVC
Формат/Информация                        : Advanced Video Codec
Профиль формата                          : High@L4.1
Настройки формата                        : CABAC / 3 Ref Frames
Параметр CABAC формата                   : Да
Параметр RefFrames формата               : 3 кадра
Идентификатор кодека                     : V_MPEG4/ISO/AVC
Продолжительность                        : 2 ч. 0 м.
Вид битрейта                             : Переменный
Битрейт                                  : 27,9 Мбит/сек
Максимальный битрейт                     : 37,0 Мбит/сек
Ширина                                   : 1920 пикселей
Высота                                   : 1080 пикселей
Соотношение сторон                       : 16:9
Режим частоты кадров                     : Постоянный
Частота кадров                           : 23,976 (24000/1001) кадра/сек
Цветовое пространство                    : YUV
Субдискретизация насыщенности            : 4:2:0
Битовая глубина                          : 8 бит
Тип развёртки                            : Прогрессивная
Бит/(Пиксели*Кадры)                      : 0.561
Размер потока                            : 23,4 Гбайт (87%)
Язык                                     : Indonesian
Default                                  : Да
Forced                                   : Нет
Аудио #1
Идентификатор                            : 2
Формат                                   : AC-3
Формат/Информация                        : Audio Coding 3
Коммерческое название                    : Dolby Digital
Идентификатор кодека                     : A_AC3
Продолжительность                        : 2 ч. 0 м.
Вид битрейта                             : Постоянный
Битрейт                                  : 192 Кбит/сек
Каналы                                   : 2 канала
Channel layout                           : L R
Частота                                  : 48,0 КГц
Частота кадров                           : 31,250 кадров/сек (1536 SPF)
Битовая глубина                          : 16 бит
Метод сжатия                             : С потерями
Размер потока                            : 165 Мбайт (1%)
Заголовок                                : MUZOBOZ
Язык                                     : Russian
ServiceKind/String                       : Complete Main
Default                                  : Да
Forced                                   : Нет
Аудио #2
Идентификатор                            : 3
Формат                                   : DTS XLL
Формат/Информация                        : Digital Theater Systems
Коммерческое название                    : DTS-HD Master Audio
Идентификатор кодека                     : A_DTS
Продолжительность                        : 2 ч. 0 м.
Вид битрейта                             : Переменный
Битрейт                                  : 1990 Кбит/сек
Каналы                                   : 6 каналов
Channel layout                           : C L R Ls Rs LFE
Частота                                  : 48,0 КГц
Частота кадров                           : 93,750 кадра/сек (512 SPF)
Битовая глубина                          : 16 бит
Метод сжатия                             : Без потерь
Размер потока                            : 1,67 Гбайт (6%)
Язык                                     : German
Default                                  : Нет
Forced                                   : Нет
Аудио #3
Идентификатор                            : 4
Формат                                   : DTS XLL
Формат/Информация                        : Digital Theater Systems
Коммерческое название                    : DTS-HD Master Audio
Идентификатор кодека                     : A_DTS
Продолжительность                        : 2 ч. 0 м.
Вид битрейта                             : Переменный
Битрейт                                  : 1933 Кбит/сек
Каналы                                   : 6 каналов
Channel layout                           : C L R Ls Rs LFE
Частота                                  : 48,0 КГц
Частота кадров                           : 93,750 кадра/сек (512 SPF)
Битовая глубина                          : 16 бит
Метод сжатия                             : Без потерь
Размер потока                            : 1,62 Гбайт (6%)
Язык                                     : Indonesian
Default                                  : Нет
Forced                                   : Нет
Текст
Идентификатор                            : 5
Формат                                   : UTF-8
Идентификатор кодека                     : S_TEXT/UTF8
Идентификатор кодека/Информация          : UTF-8 Plain Text
Продолжительность                        : 1 ч. 54 м.
Битрейт                                  : 36 бит/сек
ElementCount                             : 1059
Размер потока                            : 30,5 Кбайт (0%)
Язык                                     : English
Default                                  : Нет
Forced                                   : Нет
Меню
00:00:00.000                             : en:Chapter 01
00:10:11.069                             : en:Chapter 02
00:19:56.278                             : en:Chapter 03
00:30:55.437                             : en:Chapter 04
00:41:31.656                             : en:Chapter 05
00:53:05.849                             : en:Chapter 06
01:04:59.979                             : en:Chapter 07
01:16:29.210                             : en:Chapter 08
01:27:29.202                             : en:Chapter 09
01:37:49.822                             : en:Chapter 10
01:47:07.922                             : en:Chapter 11
01:55:53.113                             : en:Chapter 12

Скриншоты

- -Релиз группа: Filmgrad.Ru ->
[filmgrad.ru].t149261.torrent 
 GOLD TORRENT! DOWNLOAD TRAFFIC DOES NOT CONSIDER! 
Torrent: Registered [ 2020-06-28 18:55 ] · 692BA5BEDC0C632A3F3B6D2DA183953C8A10F6D6

Download .torrent

Download

269 KB

Status: checked
Completed: 0 times
Size: 26.85 GB
Оценка:  5 (Голосов: 1)
Поблагодарили: 0  Спасибо
terms.php
[Profile] [PM]
Display posts:    
Reply to topic

Current time is: 07-Jul 11:26

All times are UTC + 3



You cannot post new topics in this forum
You cannot reply to topics in this forum
You cannot edit your posts in this forum
You cannot delete your posts in this forum
You cannot vote in polls in this forum
You cannot attach files in this forum
You can download files in this forum