Джорнимен / Journeyman (2017) BDRip 1080p | L1

Reply to topic
DL-List and Torrent activity
Size:  6.64 GB   |    Registered:  13 days   |    Completed:  0 times
Seeders:  7  [  0 KB/s  ]   Leechers:  10  [  0 KB/s  ]   Show peers in full details
 
     
 
 
Author Message

STALKER ®

Gender: Male

Longevity: 9 months 19 days

Posts: 815

Post 28-Jun-2020 15:02

[Quote]

Название: Джорнимен
Оригинальное название: Journeyman
Год выхода: 2017
Страна: Великобритания
Студия: Film4, Inflammable Films
Продолжительность: 01:32:27
Жанр: драма, спорт
Режиссер: Пэдди Консидайн
В ролях: Пэдди Консидайн, Джоди Уиттакер, Пол Попплуэлл, Брендон Ингл, Тони Питтс, Мэтт Инсли, Лекси Даффи, Лейни Даффи, Энтони Уэльс, Френсис Уоррен, ....
Перевод:
- любительский (одноголосый, закадровый) Антон Кудрявцев
- субтитры
О фильме: Джорнимен — опытный профессионал, всегда готовый принять вызов более сильного соперника, т. к. он совершенно не заботится о собственном послужном списке (боксёрский сленг)…
Кодек: x264
Качество: BDRip 1080p
Видео: 1920x808, 9385 kbps, 24 fps
Аудио #1: AC-3, 6 ch, 448 kbps (Rus) - VO Антон Кудрявцев
Аудио #2: AC-3, 6 ch, 448 kbps (Eng)
Субтитры: русские, английские

MediaInfo

Общее
Уникальный идентификатор : 236160870576159470292323476448509871308 (0xB1AAEDE23F73E161A7948A05DD72C4CC)
Полное имя : Джорнимен (Journeyman) 2017 BDRip 1080p.mkv
Формат : Matroska
Версия формата : Version 2
Размер файла : 6,64 Гбайт
Продолжительность : 1 ч. 32 м.
Общий поток : 10,3 Мбит/сек
Дата кодирования : UTC 2020-06-27 16:02:52
Программа кодирования : mkvmerge v4.0.0 ('The Stars were mine') сборка от Jun 6 2010 16:18:42
Библиотека кодирования : libebml v1.0.0 + libmatroska v1.0.0
Видео
Идентификатор : 1
Формат : AVC
Формат/Информация : Advanced Video Codec
Профиль формата : High@L4.1
Параметр CABAC формата : Да
Параметр ReFrames формата : 5 кадров
Идентификатор кодека : V_MPEG4/ISO/AVC
Продолжительность : 1 ч. 32 м.
Битрейт : 9385 Кбит/сек
Ширина : 1920 пикселей
Высота : 808 пикселей
Соотношение сторон : 2,40:1
Режим частоты кадров : Постоянный
Частота кадров : 24,000 кадра/сек
Цветовое пространство : YUV
Субдискретизация насыщенности : 4:2:0
Битовая глубина : 8 бит
Тип развёртки : Прогрессивная
Бит/(Пиксели*Кадры) : 0.252
Размер потока : 5,93 Гбайт (89%)
Библиотека кодирования : x264 core 155 r2901 7d0ff22
Настройки программы : cabac=1 / ref=5 / deblock=1:-3:-3 / analyse=0x3:0x133 / me=umh / subme=8 / psy=1 / psy_rd=1.00:0.00 / mixed_ref=1 / me_range=16 / chroma_me=1 / trellis=1 / 8x8dct=1 / cqm=0 / deadzone=21,11 / fast_pskip=0 / chroma_qp_offset=-2 / threads=24 / lookahead_threads=4 / sliced_threads=0 / nr=0 / decimate=1 / interlaced=0 / bluray_compat=0 / constrained_intra=0 / bframes=3 / b_pyramid=2 / b_adapt=1 / b_bias=0 / direct=3 / weightb=1 / open_gop=0 / weightp=2 / keyint=250 / keyint_min=24 / scenecut=40 / intra_refresh=0 / rc_lookahead=50 / rc=2pass / mbtree=1 / bitrate=9385 / ratetol=1.0 / qcomp=0.60 / qpmin=0 / qpmax=69 / qpstep=4 / cplxblur=20.0 / qblur=0.5 / vbv_maxrate=62500 / vbv_bufsize=78125 / nal_hrd=none / filler=0 / ip_ratio=1.40 / aq=1:1.00
Язык : English
Default : Нет
Forced : Нет
Аудио #1
Идентификатор : 2
Формат : AC-3
Формат/Информация : Audio Coding 3
Расширение режима : CM (complete main)
Параметр Endianness формата : Big
Идентификатор кодека : A_AC3
Продолжительность : 1 ч. 32 м.
Вид битрейта : Постоянный
Битрейт : 448 Кбит/сек
Каналы : 6 каналов
Расположение каналов : Front: L C R, Side: L R, LFE
Частота : 48,0 КГц
Частота кадров : 31,250 кадров/сек (1536 spf)
Метод сжатия : С потерями
Размер потока : 296 Мбайт (4%)
Заголовок : VO Антон Кудрявцев
Язык : Russian
Default : Нет
Forced : Нет
Аудио #2
Идентификатор : 3
Формат : AC-3
Формат/Информация : Audio Coding 3
Расширение режима : CM (complete main)
Параметр Endianness формата : Big
Идентификатор кодека : A_AC3
Продолжительность : 1 ч. 32 м.
Вид битрейта : Постоянный
Битрейт : 448 Кбит/сек
Каналы : 6 каналов
Расположение каналов : Front: L C R, Side: L R, LFE
Частота : 48,0 КГц
Частота кадров : 31,250 кадров/сек (1536 spf)
Метод сжатия : С потерями
Размер потока : 296 Мбайт (4%)
Язык : English
Default : Нет
Forced : Нет
Текст #1
Идентификатор : 4
Формат : UTF-8
Идентификатор кодека : S_TEXT/UTF8
Идентификатор кодека/Информация : UTF-8 Plain Text
Заголовок : by Dark_Alice
Язык : Russian
Default : Нет
Forced : Нет
Текст #2
Идентификатор : 5
Формат : UTF-8
Идентификатор кодека : S_TEXT/UTF8
Идентификатор кодека/Информация : UTF-8 Plain Text
Язык : English
Default : Нет
Forced : Нет
Меню
00:00:00.000 : en:00:00:00.000
00:07:04.500 : en:00:07:04.500
00:15:05.208 : en:00:15:05.208
00:21:47.583 : en:00:21:47.583
00:28:58.875 : en:00:28:58.875
00:37:01.792 : en:00:37:01.792
00:43:13.125 : en:00:43:13.125
00:50:44.833 : en:00:50:44.833
00:58:17.125 : en:00:58:17.125
01:05:39.667 : en:01:05:39.667
01:14:01.000 : en:01:14:01.000
01:21:43.042 : en:01:21:43.042

--Релиз группа: Filmgrad.Ru ->
[filmgrad.ru].t149258.torrent 
Torrent: Registered [ 2020-06-28 15:02 ] · 5B94B63615F2A3C8579B2A48125DE7A56D6A7989

Download .torrent

Download

34 KB

Status: checked
Completed: 0 times
Size: 6.64 GB
Оценка:  5 (Голосов: 1)
Поблагодарили: 0  Спасибо
terms.php
[Profile] [PM]
Display posts:    
Reply to topic

Current time is: 12-Jul 06:52

All times are UTC + 3



You cannot post new topics in this forum
You cannot reply to topics in this forum
You cannot edit your posts in this forum
You cannot delete your posts in this forum
You cannot vote in polls in this forum
You cannot attach files in this forum
You can download files in this forum