На моём месте / In My Skin [S01] (2020) WEB-DL 1080p | Novamedia

Reply to topic
DL-List and Torrent activity
Size:  8.9 GB   |    Registered:  8 days   |    Completed:  0 times
Seeders:  5  [  0 KB/s  ]   Leechers:  8  [  0 KB/s  ]   Show peers in full details
 
     
 
 
Author Message

dybrik13 ®

Gender: Male

Longevity: 1 year 5 months

Posts: 7099

Location: Киев

Post 28-Jun-2020 14:24

[Quote]

На моём месте / In My Skin- Оригинальное название: In My Skin
Год выхода: 2020
Жанр: драма, комедия
Режиссёр: Люси Форбс
В ролях: Габриэль Криви, Джо Хартли, Ди Ботчер, Поппи Ли Фрайер, Родри Мейлир, James Wilbraham, Задейя Кэмпбелл-Дэвис, Лаура Чекли, Ричард Корган-Уэльская школьница из неблагополучной семьи по имени Бетан рассказывает всем,
что её родители - обычные скучные люди. На самом деле, мать девушки находится в психиатрической клинике,
а отец не выходит из перманентного запоя.
Страна: Великобритания
Студия: Expectation Entertainment
Продолжительность: ~00:30:00 серия
Перевод: Профессиональный (многоголосый закадровый) Novamedia
Качество: WEB-DL 1080p | In.My.Skin.S01.1080p.AMZN.WEB-DL.DD+2.0.H.264-Cinefeel
Формат: Matroska
Видео: 1920x1080 at 25.000 fps, MPEG-4 AVC, ~8000 kbps avg
Аудио#1: Russian: 48 kHz, AAC, 2/0 (L,R) ch, ~250 kbps avg |Многоголосый закадровый, Novamedia|
Аудио#2: English: 48 kHz, E-AC3, 2/0 (L,R) ch, ~224 kbps avg
Субтитры: Russian, English

MediaInfo

Общее
Уникальный идентификатор : 78379451639070672877402221339095197032 (0x3AF75552BB48E3610D168A67F96DE568)
Полное имя : In.My.Skin.S01E01.Pilot.1080p.AMZN.WEB-DL.DD+2.0.H.264-Cinefeel_Kyle.mkv
Формат : Matroska
Версия формата : Version 4
Размер файла : 1,69 Гбайт
Продолжительность : 28 м. 29 с.
Общий поток : 8 487 Кбит/сек
Дата кодирования : UTC 2020-06-27 16:18:59
Программа кодирования : mkvmerge v47.0.0 ('Black Flag') 64-bit
Библиотека кодирования : libebml v1.3.10 + libmatroska v1.5.2
Видео
Идентификатор : 1
Формат : AVC
Формат/Информация : Advanced Video Codec
Профиль формата : High@L4
Настройки формата : CABAC / 4 Ref Frames
Параметр CABAC формата : Да
Параметр RefFrames формата : 4 кадра
Идентификатор кодека : V_MPEG4/ISO/AVC
Продолжительность : 28 м. 29 с.
Вид битрейта : Постоянный
Битрейт : 8 006 Кбит/сек
Номинальный битрейт : 10 000 Кбит/сек
Ширина : 1 920 пикселей
Высота : 1 080 пикселей
Соотношение сторон : 16:9
Режим частоты кадров : Постоянный
Частота кадров : 25,000 кадров/сек
Цветовое пространство : YUV
Субдискретизация насыщенности : 4:2:0
Битовая глубина : 8 бит
Тип развёртки : Прогрессивная
Бит/(Пиксели*Кадры) : 0.154
Размер потока : 1,59 Гбайт (94%)
Язык : English
Default : Да
Forced : Нет
Цветовой диапазон : Limited
Основные цвета : BT.709
Характеристики трансфера : BT.709
Коэффициенты матрицы : BT.709
Аудио #1
Идентификатор : 2
Формат : AAC LC
Формат/Информация : Advanced Audio Codec Low Complexity
Идентификатор кодека : A_AAC-2
Продолжительность : 28 м. 29 с.
Битрейт : 253 Кбит/сек
Каналы : 2 канала
Channel layout : L R
Частота : 48,0 КГц
Частота кадров : 46,875 кадров/сек (1024 SPF)
Метод сжатия : С потерями
Размер потока : 51,6 Мбайт (3%)
Заголовок : Russian
Язык : Russian
Default : Да
Forced : Нет
Аудио #2
Идентификатор : 3
Формат : E-AC-3
Формат/Информация : Enhanced AC-3
Коммерческое название : Dolby Digital Plus
Идентификатор кодека : A_EAC3
Продолжительность : 28 м. 29 с.
Вид битрейта : Постоянный
Битрейт : 224 Кбит/сек
Каналы : 2 канала
Channel layout : L R
Частота : 48,0 КГц
Частота кадров : 31,250 кадров/сек (1536 SPF)
Метод сжатия : С потерями
Размер потока : 45,6 Мбайт (3%)
Заголовок : English
Язык : English
Service kind : Complete Main
Default : Нет
Forced : Нет
Текст #1
Идентификатор : 4
Формат : UTF-8
Идентификатор кодека : S_TEXT/UTF8
Идентификатор кодека/Информация : UTF-8 Plain Text
Продолжительность : 27 м. 40 с.
Битрейт : 108 бит/сек
Count of elements : 452
Размер потока : 21,9 Кбайт (0%)
Язык : Russian
Default : Нет
Forced : Нет
Текст #2
Идентификатор : 5
Формат : UTF-8
Идентификатор кодека : S_TEXT/UTF8
Идентификатор кодека/Информация : UTF-8 Plain Text
Продолжительность : 27 м. 40 с.
Битрейт : 76 бит/сек
Count of elements : 470
Размер потока : 15,5 Кбайт (0%)
Язык : English
Default : Нет
Forced : Нет

Скриншоты

--Релиз группа: Filmgrad.Ru ->
[filmgrad.ru].t149251.torrent 
Torrent: Registered [ 2020-06-28 14:24 ] · 94B86C6C726C4CF081C36C48C06B9F7FA2EE12F3

Download .torrent

Download

46 KB

Status: checked
Completed: 0 times
Size: 8.9 GB
Оценка:  5 (Голосов: 1)
Поблагодарили: 0  Спасибо
terms.php
[Profile] [PM]
Display posts:    
Reply to topic

Current time is: 07-Jul 12:57

All times are UTC + 3



You cannot post new topics in this forum
You cannot reply to topics in this forum
You cannot edit your posts in this forum
You cannot delete your posts in this forum
You cannot vote in polls in this forum
You cannot attach files in this forum
You can download files in this forum