Зачистка / The Clearing (2020) WEB-DLRip [H.264/1080p-LQ]

Reply to topic
DL-List and Torrent activity
Size:  4.42 GB   |    Registered:  8 days   |    Completed:  0 times
Seeders:  2  [  0 KB/s  ]   Leechers:  1  [  0 KB/s  ]   Show peers in full details
 
     
 
 
Author Message

dybrik13 ®

Gender: Male

Longevity: 1 year 5 months

Posts: 7099

Location: Киев

Post 28-Jun-2020 14:17

[Quote]

Зачистка / The Clearing- Производство: США / Lexicon Entertainment, Core Vision Films, The PanOptic Group
Жанр: Ужасы
Режиссер: Дэвид М. Маталон
Актеры: Лиам Макинтайр, Ондреа Смит, Стивен Суодлинг, Сидель Ноэль, Adelina Saldana, Линда Кесслер, Лейла Дрю, Mia Rivera, Geraldine Moreno, Mackenzie Augustin-Том вместе с женой Наоми переживают не лучшие времена, но главный герой решает, что нужно больше времени проводить с дочерью Мирой и отправляется с ней в поход. Но ситуация резко меняется, когда неожиданно начинается зомби-апокалипсис.Том и Мира оказываются в ловушке: из кемпинга посреди леса невозможно сбежать, пока вокруг бродят толпы оживших мертвецов. Герои должны пробиться в лагере выживших, чтобы спастись. Им придется преодолеть множество опасностей и сразиться с самыми адскими порождениями неизвестного вируса.
Дата мировой премьеры: 4 июня 2020
Продолжительность: 01:24:29
Качество видео: WEB-DLRip
Перевод: Многоголосый закадровый, любительский (MUZOBOZ)
Субтитры: Отсутствуют
Видео: AVC/H.264, 1920x804, ~6949 Kbps
Аудио: AC3, 2 ch, 384 Kbps

MediaInfo:

Общее
Полное имя : D:\NNM\Зачистка\The.Clearing.2020.WEB-DLRip.1080p-LQ.mkv
Формат : Matroska
Версия формата : Version 2
Размер файла : 4,42 Гбайт
Продолжительность : 1 ч. 24 м.
Режим общего битрейта : Переменный
Общий поток : 7482 Кбит/сек
Программа кодирования : libmatroska 1.4.1
Библиотека кодирования : SolveigMM Matroska Muxer Version 1.0.1904.23
Видео
Идентификатор : 1
Формат : AVC
Формат/Информация : Advanced Video Codec
Профиль формата : High@L4.1
Настройки формата : CABAC / 4 Ref Frames
Параметр CABAC формата : Да
Параметр RefFrames формата : 4 кадра
Идентификатор кодека : V_MPEG4/ISO/AVC
Продолжительность : 1 ч. 24 м.
Вид битрейта : Переменный
Битрейт : 6949 Кбит/сек
Номинальный битрейт : 8000 Кбит/сек
Максимальный битрейт : 8000 Кбит/сек
Ширина : 1920 пикселей
Высота : 804 пикселя
Соотношение сторон : 2,40:1
Режим частоты кадров : Постоянный
Частота кадров : 23,976 (24000/1001) кадра/сек
Стандарт вещания : Component
Цветовое пространство : YUV
Субдискретизация насыщенности : 4:2:0
Битовая глубина : 8 бит
Тип развёртки : Прогрессивная
Бит/(Пиксели*Кадры) : 0.188
Размер потока : 4,10 Гбайт (93%)
Default : Нет
Forced : Нет
Цветовой диапазон : Limited
Основные цвета : BT.709
Характеристики трансфера : BT.709
Коэффициенты матрицы : BT.709
Аудио
Идентификатор : 2
Формат : AC-3
Формат/Информация : Audio Coding 3
Коммерческое название : Dolby Digital
Идентификатор кодека : A_AC3
Продолжительность : 1 ч. 24 м.
Вид битрейта : Постоянный
Битрейт : 384 Кбит/сек
Каналы : 2 канала
ChannelLayout : L R
Частота : 48,0 КГц
Частота кадров : 31,250 кадров/сек (1536 SPF)
Метод сжатия : С потерями
Размер потока : 232 Мбайт (5%)
Язык : Russian
ServiceKind/String : Complete Main
Default : Нет
Forced : Нет
Скриншоты: --Релиз группа: Filmgrad.Ru ->
[filmgrad.ru].t149249.torrent 
Torrent: Registered [ 2020-06-28 14:17 ] · EA100336BD4B592CC2B511565D7FBB3DFC9F5A2F

Download .torrent

Download

23 KB

Status: checked
Completed: 0 times
Size: 4.42 GB
Оценка:  5 (Голосов: 1)
Поблагодарили: 0  Спасибо
terms.php
[Profile] [PM]
Display posts:    
Reply to topic

Current time is: 07-Jul 13:05

All times are UTC + 3



You cannot post new topics in this forum
You cannot reply to topics in this forum
You cannot edit your posts in this forum
You cannot delete your posts in this forum
You cannot vote in polls in this forum
You cannot attach files in this forum
You can download files in this forum