Хроники кенгуру / Die Kanguru-Chroniken (2020) WEB-DLRip

Reply to topic
DL-List and Torrent activity
Size:  1.46 GB   |    Registered:  16 days   |    Completed:  0 times
Seeders:  5  [  0 KB/s  ]   Leechers:  14  [  0 KB/s  ]   Show peers in full details
 
     
 
 
Author Message

dybrik13 ®

Gender: Male

Longevity: 1 year 5 months

Posts: 7155

Location: Киев

Post 28-Jun-2020 10:31

[Quote]

Хроники кенгуру / Die Kanguru-Chroniken- Производство: Германия / X-Filme Creative Pool, Zweites Deutsches Fernsehen (ZDF), Trixter
Жанр: Комедия
Режиссер: Дани Леви
Актеры: Фолькер Михаловски, Дмитрий Шаад, Розалия Томас, Кармен-Майя Энтони, Хенри Хюбхен, Тим Сейфи, Аднан Марал, Фред Аарон Блаке, Мориц Кацмаир, Janina Agnes Schroder-Марк-Уве, скромный художник с постоянными мигренями, который живет вместе с кенгуру. Район Берлина оказывается в опасности: ультраправая акула недвижимости угрожает идиллии города гигантским проектом строительства, однако кенгуру разрабатывает гениальный план. Потом еще один, так как первый провалился. А затем еще и еще...
Дата мировой премьеры: 5 марта 2020
Продолжительность: 01:32:17
Качество видео: WEB-DLRip
Перевод: Многоголосый закадровый, любительский (MUZOBOZ)
Субтитры: Отсутствуют
Видео: XviD, 720x384, ~1805 Kbps
Аудио #1: AC3, 2 ch, 192 Kbps - Русский
Аудио #2: AC3, 6 ch, 256 Kbps - Немецкий

MediaInfo:

Общее
Полное имя : D:\NNM\Хроники кенгуру\xxxxx.avi
Формат : AVI
Формат/Информация : Audio Video Interleave
Размер файла : 1,46 Гбайт
Продолжительность : 1 ч. 32 м.
Общий поток : 2267 Кбит/сек
Программа кодирования : VirtualDubMod 1.5.10.3 (build 2550/release)
Библиотека кодирования : VirtualDubMod build 2550/release
Видео
Идентификатор : 0
Формат : MPEG-4 Visual
Профиль формата : Advanced Simple@L5
Настройки формата : BVOP1 / Custom Matrix
Параметр BVOP формата : 1
Параметр QPel формата : Нет
Параметр GMC формата : Без точки перехода
Параметр матрицы формата : Выборочная
Идентификатор кодека : XVID
Идентификатор кодека/Подсказка : XviD
Продолжительность : 1 ч. 32 м.
Битрейт : 1805 Кбит/сек
Ширина : 720 пикселей
Высота : 384 пикселя
Соотношение сторон : 1,85:1
Частота кадров : 23,976 (24000/1001) кадра/сек
Цветовое пространство : YUV
Субдискретизация насыщенности : 4:2:0
Битовая глубина : 8 бит
Тип развёртки : Прогрессивная
Метод сжатия : С потерями
Бит/(Пиксели*Кадры) : 0.272
Размер потока : 1,16 Гбайт (80%)
Библиотека кодирования : XviD 1.2.1 (UTC 2008-12-04)
Аудио #1
Идентификатор : 1
Формат : AC-3
Формат/Информация : Audio Coding 3
Коммерческое название : Dolby Digital
Идентификатор кодека : 2000
Продолжительность : 1 ч. 32 м.
Вид битрейта : Постоянный
Битрейт : 192 Кбит/сек
Каналы : 2 канала
ChannelLayout : L R
Частота : 48,0 КГц
Частота кадров : 31,250 кадров/сек (1536 SPF)
Метод сжатия : С потерями
Размер потока : 127 Мбайт (8%)
Выравнивание : Разделение по промежуткам
Продолжительность промежутка : 42 мс. (1,00 видеокадр)
Время предзагрузки промежутка : 500 мс.
ServiceKind/String : Complete Main
Аудио #2
Идентификатор : 2
Формат : AC-3
Формат/Информация : Audio Coding 3
Коммерческое название : Dolby Digital
Идентификатор кодека : 2000
Продолжительность : 1 ч. 32 м.
Вид битрейта : Постоянный
Битрейт : 256 Кбит/сек
Каналы : 6 каналов
ChannelLayout : L R C LFE Ls Rs
Частота : 48,0 КГц
Частота кадров : 31,250 кадров/сек (1536 SPF)
Метод сжатия : С потерями
Размер потока : 169 Мбайт (11%)
Выравнивание : Разделение по промежуткам
Продолжительность промежутка : 42 мс. (1,00 видеокадр)
Время предзагрузки промежутка : 500 мс.
ServiceKind/String : Complete Main
Скриншоты: --Релиз группа: Filmgrad.Ru ->
[filmgrad.ru].t149247.torrent 
Torrent: Registered [ 2020-06-28 10:31 ] · 67E3F933F8BD8C3611747FA04DD19317F53387A0

Download .torrent

Download

15 KB

Status: checked
Completed: 0 times
Size: 1.46 GB
Оценка:  5 (Голосов: 1)
Поблагодарили: 0  Спасибо
terms.php
[Profile] [PM]
Display posts:    
Reply to topic

Current time is: 15-Jul 09:02

All times are UTC + 3



You cannot post new topics in this forum
You cannot reply to topics in this forum
You cannot edit your posts in this forum
You cannot delete your posts in this forum
You cannot vote in polls in this forum
You cannot attach files in this forum
You can download files in this forum