Depeche Mode - Live Spirits / 2020 / BDRip /(1080p)

Reply to topic
DL-List and Torrent activity
Size:  14.89 GB   |    Registered:  12 days   |    Completed:  1 time
Seeders:  11  [  0 KB/s  ]   Leechers:  3  [  0 KB/s  ]   Show peers in full details
 
     
 
 
Author Message

dybrik13 ®

Gender: Male

Longevity: 1 year 5 months

Posts: 7120

Location: Киев

Post 28-Jun-2020 09:03

[Quote]

Depeche Mode - Live Spirits- Оригинальное название: Depeche Mode - Live Spirits
Год выпуска: 2020
Жанр: Концерт, синти-поп
Выпущено: Великобритания, Columbia
Режиссер: Антон Корбейн
Исполнитель: Depeche Mode, Мартин Гор, Дэйв Гаан, Эндрю Флетчер-Как и ожидалось, Depeche Mode выпустили свой недавний документальный фильм «SPiRiTS In The Forest» в виде DVD или Blu-ray Box Set, вместе с «LiVE SPiRiTS» - полной видео и аудио записью заключительных концертов в Waldbühne, Берлин. «SPiRiTS In The Forest» Box Set появился 27-го марта 2020 года на Columbia (Sony Music). Саундтрек «LiVE SPiRiTS SOUNDTRACK» помимо бокс-сетов доступен также в виде отдельных 2xCD или в цифровом формате. Этот тур, состоявший из 115 незабываемых шоу, посетили в общей сложности более 3 миллионов фанатов. Погружаясь в глубоко личные истории шести поклонников Depeche Mode, фильм поражает волнующими музыкальными выступлениями, снятыми на заключительных шоу турне в знаменитом берлинском театре Вальдбюне.
Качество: BDRip (1080p)
Видео: MPEG-4 AVC, 13.5 Мбит/с, 1920x1080, 23.976 кадр/с
Аудио: Английский (DTS, 6 ch, 1509 Кбит/с), (FLAC, 2 ch, 1805 Кбит/с)
Размер: 14.89 ГБ
Продолжительность: 02:06:47
Перевод: Не требуется

Треклист

01. Intro
02. Going Backwards
03. It’s No Good
04. A Pain That I’m Used To
05. Useless
06. Precious
07. World In My Eyes
08. Cover Me
09. The Things You Said
10. Insight
11. Poison Heart
12. Where’s the Revolution
13. Everything Counts
14. Stripped
15. Enjoy The Silence
16. Never Let Me Down Again
17. I Want You Now
18. Heroes
19. Walking In My Shoes
20. Personal Jesus
21. Just Can’t Get Enough
22. Pimpf

MediaInfo:

General
Unique ID : 262791890023018803749997046844089081652 (0xC5B3E083F908937A7F86FCF32FCE9F34)
Complete name : D:\BDRip\Depeche Mode - Live Spirits.BDRip1080p.mkv
Format : Matroska
Format version : Version 2
File size : 14.9 GiB
Duration : 2 h 6 min
Overall bit rate mode : Variable
Overall bit rate : 16.8 Mb/s
Movie name : Depeche Mode - Live Spirits.BDRip1080p @ rutracker.org
Encoded date : UTC 2020-06-27 21:40:08
Writing application : mkvmerge v46.0.0 ('No Deeper Escape') 64-bit
Writing library : libebml v1.3.10 + libmatroska v1.5.2
Video
ID : 1
Format : AVC
Format/Info : Advanced Video Codec
Format profile : High@L4.1
Format settings : CABAC / 4 Ref Frames
Format settings, CABAC : Yes
Format settings, Reference : 4 frames
Codec ID : V_MPEG4/ISO/AVC
Duration : 2 h 6 min
Bit rate : 13.5 Mb/s
Width : 1 920 pixels
Height : 1 080 pixels
Display aspect ratio : 16:9
Frame rate mode : Constant
Frame rate : 23.976 (24000/1001) FPS
Color space : YUV
Chroma subsampling : 4:2:0
Bit depth : 8 bits
Scan type : Progressive
Bits/(Pixel*Frame) : 0.272
Stream size : 11.9 GiB (80%)
Title : anbelk27 @ rutracker.org
Writing library : x264 core 157 r2969 d4099dd
Encoding settings : cabac=1 / ref=4 / deblock=1:-3:-3 / analyse=0x3:0x133 / me=umh / subme=11 / psy=1 / psy_rd=1.10:0.07 / mixed_ref=1 / me_range=40 / chroma_me=1 / trellis=2 / 8x8dct=1 / cqm=0 / deadzone=21,11 / fast_pskip=1 / chroma_qp_offset=-3 / threads=12 / lookahead_threads=3 / sliced_threads=0 / nr=0 / decimate=1 / interlaced=0 / bluray_compat=0 / constrained_intra=0 / bframes=10 / b_pyramid=2 / b_adapt=2 / b_bias=0 / direct=3 / weightb=1 / open_gop=0 / weightp=2 / keyint=240 / keyint_min=23 / scenecut=50 / intra_refresh=0 / rc_lookahead=100 / rc=2pass / mbtree=1 / bitrate=13500 / ratetol=1.0 / qcomp=0.60 / qpmin=0 / qpmax=69 / qpstep=4 / cplxblur=20.0 / qblur=0.5 / vbv_maxrate=50000 / vbv_bufsize=62500 / nal_hrd=none / filler=0 / ip_ratio=1.40 / aq=1:1.00
Default : Yes
Forced : No
Audio #1
ID : 2
Format : DTS
Format/Info : Digital Theater Systems
Codec ID : A_DTS
Duration : 2 h 6 min
Bit rate mode : Constant
Bit rate : 1 509 kb/s
Channel(s) : 6 channels
Channel layout : C L R Ls Rs LFE
Sampling rate : 48.0 kHz
Frame rate : 93.750 FPS (512 SPF)
Bit depth : 24 bits
Compression mode : Lossy
Stream size : 1.34 GiB (9%)
Title : DTS 5.1 @ 24 bit
Default : Yes
Forced : No
Audio #2
ID : 3
Format : FLAC
Format/Info : Free Lossless Audio Codec
Codec ID : A_FLAC
Duration : 2 h 6 min
Bit rate mode : Variable
Bit rate : 1 805 kb/s
Channel(s) : 2 channels
Channel layout : L R
Sampling rate : 48.0 kHz
Frame rate : 11.719 FPS (4096 SPF)
Bit depth : 24 bits
Compression mode : Lossless
Stream size : 1.60 GiB (11%)
Title : FLAC 2.0 @ 24 bit
Writing library : libFLAC 1.2.1 (UTC 2007-09-17)
Default : No
Forced : No
Menu
00:00:00.000 : en: 1. Intro
00:02:27.397 : en: 2. Going Backwards
00:08:51.823 : en: 3. It’s No Good
00:14:10.141 : en: 4. A Pain That I’m Used To
00:18:52.048 : en: 5. Useless
00:24:37.851 : en: 6. Precious
00:29:49.621 : en: 7. World In My Eyes
00:35:33.590 : en: 8. Cover Me
00:41:04.796 : en: 9. The Things You Said
00:45:08.497 : en: 10. Insight
00:51:38.429 : en: 11. Poison Heart
00:55:08.597 : en: 12. Where’s the Revolution
01:00:14.110 : en: 13. Everything Counts
01:08:42.118 : en: 14. Stripped
01:13:59.935 : en: 15. Enjoy The Silence
01:21:43.607 : en: 16. Never Let Me Down Again
01:28:21.296 : en: 17. I Want You Now
01:33:05.580 : en: 18. Heroes
01:39:54.614 : en: 19. Walking In My Shoes
01:48:52.609 : en: 20. Personal Jesus
01:55:53.947 : en: 21. Just Can’t Get Enough
02:04:20.953 : en: 22. Pimpf
RAW Paste Data
General
Unique ID : 262791890023018803749997046844089081652 (0xC5B3E083F908937A7F86FCF32FCE9F34)
Complete name : D:\BDRip\Depeche Mode - Live Spirits.BDRip1080p.mkv
Format : Matroska
Format version : Version 2
File size : 14.9 GiB
Duration : 2 h 6 min
Overall bit rate mode : Variable
Overall bit rate : 16.8 Mb/s
Movie name : Depeche Mode - Live Spirits.BDRip1080p @ rutracker.org
Encoded date : UTC 2020-06-27 21:40:08
Writing application : mkvmerge v46.0.0 ('No Deeper Escape') 64-bit
Writing library : libebml v1.3.10 + libmatroska v1.5.2
Video
ID : 1
Format : AVC
Format/Info : Advanced Video Codec
Format profile : High@L4.1
Format settings : CABAC / 4 Ref Frames
Format settings, CABAC : Yes
Format settings, Reference : 4 frames
Codec ID : V_MPEG4/ISO/AVC
Duration : 2 h 6 min
Bit rate : 13.5 Mb/s
Width : 1 920 pixels
Height : 1 080 pixels
Display aspect ratio : 16:9
Frame rate mode : Constant
Frame rate : 23.976 (24000/1001) FPS
Color space : YUV
Chroma subsampling : 4:2:0
Bit depth : 8 bits
Scan type : Progressive
Bits/(Pixel*Frame) : 0.272
Stream size : 11.9 GiB (80%)
Title : anbelk27 @ rutracker.org
Writing library : x264 core 157 r2969 d4099dd
Encoding settings : cabac=1 / ref=4 / deblock=1:-3:-3 / analyse=0x3:0x133 / me=umh / subme=11 / psy=1 / psy_rd=1.10:0.07 / mixed_ref=1 / me_range=40 / chroma_me=1 / trellis=2 / 8x8dct=1 / cqm=0 / deadzone=21,11 / fast_pskip=1 / chroma_qp_offset=-3 / threads=12 / lookahead_threads=3 / sliced_threads=0 / nr=0 / decimate=1 / interlaced=0 / bluray_compat=0 / constrained_intra=0 / bframes=10 / b_pyramid=2 / b_adapt=2 / b_bias=0 / direct=3 / weightb=1 / open_gop=0 / weightp=2 / keyint=240 / keyint_min=23 / scenecut=50 / intra_refresh=0 / rc_lookahead=100 / rc=2pass / mbtree=1 / bitrate=13500 / ratetol=1.0 / qcomp=0.60 / qpmin=0 / qpmax=69 / qpstep=4 / cplxblur=20.0 / qblur=0.5 / vbv_maxrate=50000 / vbv_bufsize=62500 / nal_hrd=none / filler=0 / ip_ratio=1.40 / aq=1:1.00
Default : Yes
Forced : No
Audio #1
ID : 2
Format : DTS
Format/Info : Digital Theater Systems
Codec ID : A_DTS
Duration : 2 h 6 min
Bit rate mode : Constant
Bit rate : 1 509 kb/s
Channel(s) : 6 channels
Channel layout : C L R Ls Rs LFE
Sampling rate : 48.0 kHz
Frame rate : 93.750 FPS (512 SPF)
Bit depth : 24 bits
Compression mode : Lossy
Stream size : 1.34 GiB (9%)
Title : DTS 5.1 @ 24 bit
Default : Yes
Forced : No
Audio #2
ID : 3
Format : FLAC
Format/Info : Free Lossless Audio Codec
Codec ID : A_FLAC
Duration : 2 h 6 min
Bit rate mode : Variable
Bit rate : 1 805 kb/s
Channel(s) : 2 channels
Channel layout : L R
Sampling rate : 48.0 kHz
Frame rate : 11.719 FPS (4096 SPF)
Bit depth : 24 bits
Compression mode : Lossless
Stream size : 1.60 GiB (11%)
Title : FLAC 2.0 @ 24 bit
Writing library : libFLAC 1.2.1 (UTC 2007-09-17)
Default : No
Forced : No
Menu
00:00:00.000 : en: 1. Intro
00:02:27.397 : en: 2. Going Backwards
00:08:51.823 : en: 3. It’s No Good
00:14:10.141 : en: 4. A Pain That I’m Used To
00:18:52.048 : en: 5. Useless
00:24:37.851 : en: 6. Precious
00:29:49.621 : en: 7. World In My Eyes
00:35:33.590 : en: 8. Cover Me
00:41:04.796 : en: 9. The Things You Said
00:45:08.497 : en: 10. Insight
00:51:38.429 : en: 11. Poison Heart
00:55:08.597 : en: 12. Where’s the Revolution
01:00:14.110 : en: 13. Everything Counts
01:08:42.118 : en: 14. Stripped
01:13:59.935 : en: 15. Enjoy The Silence
01:21:43.607 : en: 16. Never Let Me Down Again
01:28:21.296 : en: 17. I Want You Now
01:33:05.580 : en: 18. Heroes
01:39:54.614 : en: 19. Walking In My Shoes
01:48:52.609 : en: 20. Personal Jesus
01:55:53.947 : en: 21. Just Can’t Get Enough
02:04:20.953 : en: 22. Pimpf

Скриншоты

--Релиз группа: Filmgrad.Ru ->
[filmgrad.ru].t149243.torrent 
Torrent: Registered [ 2020-06-28 09:03 ] · DCA5D19EE1358AD3B6984F1FD9977ADEAB0E7BA5

Download .torrent

Download

75 KB

Status: checked
Completed: 1 times
Size: 14.89 GB
Оценка:  5 (Голосов: 1)
Поблагодарили: 0  Спасибо
terms.php
[Profile] [PM]
Display posts:    
Reply to topic

Current time is: 11-Jul 04:38

All times are UTC + 3



You cannot post new topics in this forum
You cannot reply to topics in this forum
You cannot edit your posts in this forum
You cannot delete your posts in this forum
You cannot vote in polls in this forum
You cannot attach files in this forum
You can download files in this forum