Ломая поверхность / Breaking Surface (2020) WEB-DL [H.264/1080p-LQ]

Reply to topic
DL-List and Torrent activity
Size:  2.93 GB   |    Registered:  13 days   |    Completed:  1 time
Seeders:  235  [  0 KB/s  ]   Leechers:  7  [  0 KB/s  ]   Show peers in full details
 
     
 
 
Author Message

dybrik13 ®

Gender: Male

Longevity: 1 year 5 months

Posts: 7120

Location: Киев

Post 28-Jun-2020 08:01

[Quote]

Ломая поверхность / Breaking Surface- Производство: Швеция, Норвегия, Бельгия / Way Feature Films, Umedia, Film i Skåne
Жанр: Боевик, триллер, драма
Режиссер: Йоахим Хеден
Продюсер: Julia Gebauer, Jonas Sörensson, Анна Кронеман
Актеры: Муа Гаммель, Мадлен Мартин, Трине Вигген, Jitse Jonathan Buitnik, Remi Alashkar, Alessio Barreto, Ima Jenny Hallberg, Лена Хоуп, Thomas Hoy, Elle Kohrs-Зимний дайвинг в Норвегии превращается в отчаянную гонку на время для двух сестер, когда они решают погрузиться на морскую глубину, где их ждёт череда драматических событий.
Дата мировой премьеры: 14 февраля 2020
Продолжительность: 01:18:07
Качество видео: WEB-DL
Перевод: Одноголосый любительский (Дмитрий Хихидок)
Субтитры: Отсутствуют
Видео: AVC/H.264, 1920x1080, ~4982 Kbps
Аудио: AC3, 6 ch, 384 Kbps - Русский (VO)

MediaInfo:

General
Unique ID : 246665840105830260576708455255643084621 (0xB9921CDE9B97DB1181E283E30D5D574D)
Complete name : Breaking.Surface.2020.WEB-DL.1080p.mkv
Format : Matroska
Format version : Version 4
File size : 2.93 GiB
Duration : 1 h 18 min
Overall bit rate mode : Variable
Overall bit rate : 5 368 kb/s
Encoded date : UTC 2020-06-27 18:11:27
Writing application : mkvmerge v7.1.0 ('Good Love') 64bit built on Jul 27 2014 13:06:55
Writing library : libebml v1.3.0 + libmatroska v1.4.1
Video
ID : 1
Format : AVC
Format/Info : Advanced Video Codec
Format profile : High@L4.1
Format settings : CABAC / 3 Ref Frames
Format settings, CABAC : Yes
Format settings, Reference : 3 frames
Format settings, GOP : M=3, N=50
Codec ID : V_MPEG4/ISO/AVC
Duration : 1 h 18 min
Bit rate mode : Variable
Bit rate : 4 982 kb/s
Maximum bit rate : 7 200 kb/s
Width : 1 920 pixels
Height : 1 080 pixels
Display aspect ratio : 16:9
Frame rate mode : Constant
Frame rate : 25.000 FPS
Color space : YUV
Chroma subsampling : 4:2:0
Bit depth : 8 bits
Scan type : Progressive
Bits/(Pixel*Frame) : 0.096
Stream size : 2.72 GiB (93%)
Language : English
Default : Yes
Forced : No
Audio
ID : 2
Format : AC-3
Format/Info : Audio Coding 3
Commercial name : Dolby Digital
Codec ID : A_AC3
Duration : 1 h 18 min
Bit rate mode : Constant
Bit rate : 384 kb/s
Channel(s) : 6 channels
Channel layout : L R C LFE Ls Rs
Sampling rate : 48.0 kHz
Frame rate : 31.250 FPS (1536 SPF)
Compression mode : Lossy
Stream size : 215 MiB (7%)
Title : Хихидок
Language : Russian
Service kind : Complete Main
Default : Yes
Forced : No
Скриншоты:

Дополнительные скриншоты:


--Релиз группа: Filmgrad.Ru ->
[filmgrad.ru].t149238.torrent 
Torrent: Registered [ 2020-06-28 08:01 ] · A2270A98A6C0289DEFF450CCF2FB77992EEEA150

Download .torrent

Download

15 KB

Status: checked
Completed: 1 times
Size: 2.93 GB
Оценка:  5 (Голосов: 1)
Поблагодарили: 0  Спасибо
terms.php
[Profile] [PM]
Display posts:    
Reply to topic

Current time is: 12-Jul 07:49

All times are UTC + 3



You cannot post new topics in this forum
You cannot reply to topics in this forum
You cannot edit your posts in this forum
You cannot delete your posts in this forum
You cannot vote in polls in this forum
You cannot attach files in this forum
You can download files in this forum