Пеле. Король футбола / Pele: King of Football (2014) IPTVRip [H.264]

Reply to topic
DL-List and Torrent activity
Size:  499 MB   |    Registered:  13 days   |    Completed:  0 times

Seeder not seen: Never

Leechers:  7  [  0 KB/s  ]   Show peers in full details
 
     
 
 
Author Message

dybrik13 ®

Gender: Male

Longevity: 1 year 5 months

Posts: 7120

Location: Киев

Post 28-Jun-2020 07:59

[Quote]

Пеле. Король футбола / Pele: King of Football- Производство: США / Bully Entertainment
Жанр: Документальный, Спорт
Режиссер: Carlson Bull
Участники: Pelé-Пеле был феноменальным атлетом. Его филигранная техника владения мячом и многократно отработанные на тренировках приёмы сочетались с мастерской импровизацией на поле.
Бразилия - символ всемирно известной игры. Её страсть к футболу подарила миру лучших игроков. Но только один из них признан настоящим Королём футбола. Пеле в 17 лет дебютировал в составе национальной сборной, и исполнил обещание, данное отцу: выиграл для него кубок мира, забив два из пяти голов в финальном матче против Швеции. С тех пор одно появление Пеле на поле вселяло ужас в сердца самых стойких защитников и непробиваемых вратарей.
Продолжительность: 00:48:47
Качество видео: IPTVRip
Перевод: Одноголосый профессиональный (Igmar)
Субтитры: отсутствуют
Видео: AVC/H.264, 720x568@774x568, ~1300 Kbps
Аудио: AC3, 2 ch, 128 Kbps

MediaInfo:

General
Unique ID : 195093214784788291890697054466298659376 (0x92C59620481C93148AD6C775A25CC230)
Complete name : D:\Pele._Korol_futbola._.mkv
Format : Matroska
Format version : Version 2
File size : 499 MiB
Duration : 48mn 47s
Overall bit rate : 1 430 Kbps
Encoded date : UTC 2020-06-27 22:02:32
Writing application : mkvmerge v7.8.0 ('River Man') 32bit built on Apr 3 2015 12:11:22
Writing library : libebml v1.3.1 + libmatroska v1.4.2
Video
ID : 1
Format : AVC
Format/Info : Advanced Video Codec
Format profile : High@L4.1
Format settings, CABAC : Yes
Format settings, ReFrames : 9 frames
Codec ID : V_MPEG4/ISO/AVC
Duration : 48mn 47s
Bit rate : 1 300 Kbps
Width : 720 pixels
Height : 568 pixels
Display aspect ratio : 4:3
Original display aspect rat : 4:3
Frame rate mode : Constant
Frame rate : 25.000 fps
Color space : YUV
Chroma subsampling : 4:2:0
Bit depth : 8 bits
Scan type : Progressive
Bits/(Pixel*Frame) : 0.127
Stream size : 444 MiB (89%)
Writing library : x264 core 146 r2538 121396c
Encoding settings : cabac=1 / ref=9 / deblock=1:-1:-1 / analyse=0x3:0x113 / me=umh / subme=9 / psy=1 / psy_rd=1.00:0.20 / mixed_ref=1 / me_range=30 / chroma_me=1 / trellis=2 / 8x8dct=1 / cqm=0 / deadzone=21,11 / fast_pskip=0 / chroma_qp_offset=-3 / threads=6 / lookahead_threads=1 / sliced_threads=0 / nr=0 / decimate=0 / interlaced=0 / bluray_compat=0 / constrained_intra=0 / bframes=10 / b_pyramid=2 / b_adapt=2 / b_bias=0 / direct=3 / weightb=1 / open_gop=0 / weightp=2 / keyint=250 / keyint_min=25 / scenecut=40 / intra_refresh=0 / rc_lookahead=50 / rc=2pass / mbtree=1 / bitrate=1300 / ratetol=1.0 / qcomp=0.60 / qpmin=0 / qpmax=69 / qpstep=4 / cplxblur=20.0 / qblur=0.5 / vbv_maxrate=14000 / vbv_bufsize=14000 / nal_hrd=none / filler=0 / ip_ratio=1.40 / aq=1:1.00
Default : Yes
Forced : No
Audio
ID : 2
Format : AC-3
Format/Info : Audio Coding 3
Mode extension : CM (complete main)
Format settings, Endianness : Big
Codec ID : A_AC3
Duration : 48mn 47s
Bit rate mode : Constant
Bit rate : 128 Kbps
Channel(s) : 2 channels
Channel positions : Front: L R
Sampling rate : 48.0 KHz
Bit depth : 16 bits
Compression mode : Lossy
Stream size : 44.7 MiB (9%)
Default : Yes
Forced : No
Скриншоты:

Дополнительные скриншоты:

--Релиз группа: Filmgrad.Ru ->
[filmgrad.ru].t149237.torrent 
Torrent: Registered [ 2020-06-28 07:59 ] · CA45B3F4928CB0C78DA0AF5345ECC782FF3FBF4A

Download .torrent

Download

40 KB

Status: checked
Completed: 0 times
Size: 499 MB
Оценка:  5 (Голосов: 1)
Поблагодарили: 0  Спасибо
terms.php
[Profile] [PM]
Display posts:    
Reply to topic

Current time is: 12-Jul 06:09

All times are UTC + 3



You cannot post new topics in this forum
You cannot reply to topics in this forum
You cannot edit your posts in this forum
You cannot delete your posts in this forum
You cannot vote in polls in this forum
You cannot attach files in this forum
You can download files in this forum