Великая война Архимеда / Archimedes no Taisen / The Great War of Archimedes (2019) WEB-DLRip [H.264/720p]

Reply to topic
DL-List and Torrent activity
Size:  5.12 GB   |    Registered:  17 days   |    Completed:  1 time
Seeders:  9  [  0 KB/s  ]   Leechers:  10  [  0 KB/s  ]   Show peers in full details
 
     
 
 
Author Message

dybrik13 ®

Gender: Male

Longevity: 1 year 5 months

Posts: 7155

Location: Киев

Post 27-Jun-2020 10:58

[Quote]

Великая война Архимеда / Archimedes no Taisen / The Great War of Archimedes- Производство: Япония / Abe Shuji, Asahi Shimbunsha, Culture Entertainment, Dentsu, Gyao, Hikari TV, Jiji Press
Жанр: Драма, детектив, военный, история
Режиссер: Наоки Сато
Актеры: Дзюн Кунимура, Минами Хамабэ, Масаки Суда, Мин Танака, Тасуку Эмото, Фумиё Кохината, Исао Хасидзумэ, Хоси Исида, Цурубэ Сёфукутэй, Хироси Тати-30-е годы, Японская империя. В штабе Императорского флота решают построить крупнейший в мире авианосец — Ямато. Контр-адмирал Исороку Ямамото выступает против этого решения и привлекает к делу гениального математика Тадаси Каи. С его помощью Исороку обнаруживает расхождения, связанные с расчетной стоимостью строительства Ямато, и понимает — в армии заговор.
Дата мировой премьеры: 26 июля 2019
Продолжительность: 02:10:00
Качество видео: WEB-DLRip
Перевод: Многоголосый любительский ("Синема УС")
Субтитры: Отсутствуют
Видео: AVC/H.264, 1280х536, ~5232 Kbps
Аудио: AAC, 2 ch, 384 Kbps, русский (MVO)

MediaInfo:

Общее
Уникальный идентификатор : 221630906070531263666759957497855337830 (0xA6BC8F530108972B963F3AF97397E566)
Полное имя : E:\Downloads\Archimedes.no.Taisen.2020.P.WEB-DL.72Op.mkv
Формат : Matroska
Версия формата : Version 2
Размер файла : 5,12 Гбайт
Продолжительность : 2 ч. 10 м.
Режим общего битрейта : Переменный
Общий поток : 5 615 Кбит/сек
Дата кодирования : UTC 2020-06-24 11:26:58
Программа кодирования : mkvmerge v8.3.0 ('Over the Horizon') 64bit
Библиотека кодирования : libebml v1.3.1 + libmatroska v1.4.2
Видео
Идентификатор : 1
Формат : AVC
Формат/Информация : Advanced Video Codec
Профиль формата : High@L4.1
Настройки формата : CABAC / 4 Ref Frames
Параметр CABAC формата : Да
Параметр RefFrames формата : 4 кадра
Идентификатор кодека : V_MPEG4/ISO/AVC
Продолжительность : 2 ч. 10 м.
Вид битрейта : Переменный
Битрейт : 5 232 Кбит/сек
Номинальный битрейт : 6 000 Кбит/сек
Максимальный битрейт : 6 000 Кбит/сек
Ширина : 1 280 пикселей
Высота : 536 пикселей
Соотношение сторон : 2,40:1
Режим частоты кадров : Постоянный
Частота кадров : 23,976 (24000/1001) кадра/сек
Стандарт вещания : Component
Цветовое пространство : YUV
Субдискретизация насыщенности : 4:2:0
Битовая глубина : 8 бит
Тип развёртки : Прогрессивная
Бит/(Пиксели*Кадры) : 0.318
Размер потока : 4,77 Гбайт (93%)
Библиотека кодирования : x264 core 155
Настройки программы : cabac=1 / ref=4 / deblock=1:0:0 / analyse=0x3:0x3 / me=dia / subme=1 / psy=1 / psy_rd=1.00:0.00 / mixed_ref=0 / me_range=16 / chroma_me=1 / trellis=0 / 8x8dct=1 / cqm=1 / deadzone=21,11 / fast_pskip=1 / chroma_qp_offset=0 / threads=17 / lookahead_threads=2 / sliced_threads=0 / slices=1 / nr=0 / decimate=1 / interlaced=0 / minigop=0 / stitchable=1 / constrained_intra=0 / bframes=2 / b_pyramid=0 / b_adapt=0 / b_bias=0 / direct=1 / weightb=1 / open_gop=1 / weightp=0 / keyint=240 / keyint_min=23 / scenecut=40 / intra_refresh=0 / rc_lookahead=0 / rc=cbr / mbtree=0 / bitrate=6000 / ratetol=1.0 / qcomp=0.60 / qpmin=1 / qpmax=69 / qpstep=4 / vbv_maxrate=6000 / vbv_bufsize=6000 / nal_hrd=vbr / filler=0 / ip_ratio=1.40 / pb_ratio=1.30 / aq=1:1.00
Default : Да
Forced : Нет
Цветовой диапазон : Limited
Основные цвета : BT.709
Характеристики трансфера : BT.709
Коэффициенты матрицы : BT.709
Аудио
Идентификатор : 2
Формат : AAC Main
Формат/Информация : Advanced Audio Codec
Идентификатор кодека : A_AAC-1
Продолжительность : 2 ч. 10 м.
Битрейт : 384 Кбит/сек
Каналы : 2 канала
Channel layout : L R
Частота : 48,0 КГц
Частота кадров : 46,875 кадров/сек (1024 SPF)
Метод сжатия : С потерями
Размер потока : 356 Мбайт (7%)
Default : Да
Forced : Нет
Скриншоты:
--Релиз группа: Filmgrad.Ru ->
[filmgrad.ru].t149214.torrent 
Torrent: Registered [ 2020-06-27 10:58 ] · 03BEA9C17972CFA718F579FCADDAFCD53EC75FED

Download .torrent

Download

26 KB

Status: checked
Completed: 1 times
Size: 5.12 GB
Оценка:  5 (Голосов: 1)
Поблагодарили: 0  Спасибо
terms.php
[Profile] [PM]
Display posts:    
Reply to topic

Current time is: 15-Jul 07:05

All times are UTC + 3



You cannot post new topics in this forum
You cannot reply to topics in this forum
You cannot edit your posts in this forum
You cannot delete your posts in this forum
You cannot vote in polls in this forum
You cannot attach files in this forum
You can download files in this forum