Евровидение: История огненной саги / Eurovision Song Contest: The Story of Fire Saga (2020) WEB-DL 1080p | Пифагор

Reply to topic
DL-List and Torrent activity
Size:  7.99 GB   |    Registered:  14 days   |    Completed:  0 times
Seeders:  399  [  0 KB/s  ]   Leechers:  26  [  0 KB/s  ]   Show peers in full details
 
     
 
 
Author Message

dybrik13 ®

Gender: Male

Longevity: 1 year 5 months

Posts: 7120

Location: Киев

Post 26-Jun-2020 16:07

[Quote]

Евровидение: История огненной саги / Eurovision Song Contest: The Story of Fire Saga- Год выпуска: 2020
Страна: США
Жанр: комедия, музыкальный
Продолжительность: 02:03:00
Перевод: Профессиональный (дублированный) | Пифагор
Режиссёр: Дэвид Добкин / David Dobkin
В ролях: Уилл Феррелл, Рэйчел МакАдамс, Натасия Деметриу, Пирс Броснан, Дэн Стивенс, Деми Ловато, Йоуханнес Хёйкьюр Йоуханнессон, Джэми Деметриу, Оулавюр Дарри Оулафссон-Исландские музыканты Ларс Эрикссон и Сигрит Эриксдоттер мечтают победить на знаменитом международном конкурсе эстрадной песни. Они готовы идти до конца и для достижения заветной цели не остановятся ни перед чем.
Качество: WEB-DL 1080p
Формат: MKV
Видео: AVC, 1920x1080 (16:9), 24 fps, ~7500 kbps
Аудио №1: E-AC3, 48 kHz, 6 ch, 640 kbps
Аудио №2: E-AC3, 48 kHz, 6 ch, 640 kbps
Аудио №3: E-AC3, 48 kHz, 6 ch, 640 kbps - Audio Dеsсription
Субтитры: Русские (Forced, Full), английские (Forced, SDH), немецкие, испанские, французкие, итальянские, португальские, румынские
Реклама: отсутствует

MediaInfo

General
Unique ID : 97187223945975197063877396140989268663 (0x491D941753B80AFD78B4B4E718B2C2B7)
Complete name : Eurovision.Song.Contest.The.Story.of.Fire.Saga.2020.1080p.NF.WEB-DL.DDP5.1.x264.mkv
Format : Matroska
Format version : Version 4
File size : 7.99 GiB
Duration : 2 h 3 min
Overall bit rate mode : Variable
Overall bit rate : 9 259 kb/s
Movie name : Eurovision Song Contest: The Story of Fire Saga (2020) - EniaHD
Encoded date : UTC 2020-06-26 09:45:06
Writing application : mkvmerge v47.0.0 ('Black Flag') 64-bit
Writing library : libebml v1.3.10 + libmatroska v1.5.2
Video
ID : 1
Format : AVC
Format/Info : Advanced Video Codec
Format profile : Main@L4
Format settings : CABAC / 3 Ref Frames
Format settings, CABAC : Yes
Format settings, Reference fra : 3 frames
Codec ID : V_MPEG4/ISO/AVC
Duration : 2 h 3 min
Bit rate mode : Variable
Bit rate : 7 500 kb/s
Maximum bit rate : 11.2 Mb/s
Width : 1 920 pixels
Height : 1 080 pixels
Display aspect ratio : 16:9
Frame rate mode : Constant
Frame rate : 24.000 FPS
Color space : YUV
Chroma subsampling : 4:2:0
Bit depth : 8 bits
Scan type : Progressive
Bits/(Pixel*Frame) : 0.151
Stream size : 6.33 GiB (79%)
Writing library : x264 core 148 r2717 0d2410d
Encoding settings : cabac=1 / ref=3 / deblock=1:0:0 / analyse=0x1:0x111 / me=umh / subme=10 / psy=1 / psy_rd=1.00:0.00 / mixed_ref=1 / me_range=24 / chroma_me=1 / trellis=2 / 8x8dct=0 / cqm=0 / deadzone=21,11 / fast_pskip=1 / chroma_qp_offset=-2 / threads=8 / lookahead_threads=1 / sliced_threads=0 / nr=0 / decimate=1 / interlaced=0 / bluray_compat=0 / stitchable=1 / constrained_intra=0 / bframes=2 / b_pyramid=0 / b_adapt=2 / b_bias=0 / direct=3 / weightb=1 / open_gop=0 / weightp=2 / keyint=250 / keyint_min=24 / scenecut=0 / intra_refresh=0 / rc_lookahead=48 / rc=2pass / mbtree=1 / bitrate=7500 / ratetol=1.0 / qcomp=0.50 / qpmin=6 / qpmax=51 / qpstep=4 / cplxblur=20.0 / qblur=0.5 / vbv_maxrate=11250 / vbv_bufsize=15000 / nal_hrd=vbr / filler=0 / ip_ratio=1.40 / aq=1:1.00
Default : Yes
Forced : No
Audio #1
ID : 2
Format : E-AC-3
Format/Info : Enhanced AC-3
Commercial name : Dolby Digital Plus
Codec ID : A_EAC3
Duration : 2 h 3 min
Bit rate mode : Constant
Bit rate : 640 kb/s
Channel(s) : 6 channels
Channel layout : L R C LFE Ls Rs
Sampling rate : 48.0 kHz
Frame rate : 31.250 FPS (1536 SPF)
Compression mode : Lossy
Stream size : 566 MiB (7%)
Language : Russian
Service kind : Complete Main
Default : Yes
Forced : No
Audio #2
ID : 3
Format : E-AC-3
Format/Info : Enhanced AC-3
Commercial name : Dolby Digital Plus
Codec ID : A_EAC3
Duration : 2 h 3 min
Bit rate mode : Constant
Bit rate : 640 kb/s
Channel(s) : 6 channels
Channel layout : L R C LFE Ls Rs
Sampling rate : 48.0 kHz
Frame rate : 31.250 FPS (1536 SPF)
Compression mode : Lossy
Stream size : 566 MiB (7%)
Language : English
Service kind : Complete Main
Default : No
Forced : No
Audio #3
ID : 4
Format : E-AC-3
Format/Info : Enhanced AC-3
Commercial name : Dolby Digital Plus
Codec ID : A_EAC3
Duration : 2 h 3 min
Bit rate mode : Constant
Bit rate : 640 kb/s
Channel(s) : 6 channels
Channel layout : L R C LFE Ls Rs
Sampling rate : 48.0 kHz
Frame rate : 31.250 FPS (1536 SPF)
Compression mode : Lossy
Stream size : 566 MiB (7%)
Title : Audio Deion
Language : English
Service kind : Complete Main
Default : No
Forced : No
Text #1
ID : 5
Format : UTF-8
Codec ID : S_TEXT/UTF8
Codec ID/Info : UTF-8 Plain Text
Duration : 1 h 50 min
Bit rate : 11 b/s
Count of elements : 205
Stream size : 9.40 KiB (0%)
Title : Forced
Language : Russian
Default : Yes
Forced : No
Text #2
ID : 6
Format : UTF-8
Codec ID : S_TEXT/UTF8
Codec ID/Info : UTF-8 Plain Text
Duration : 1 h 54 min
Bit rate : 99 b/s
Count of elements : 1837
Stream size : 83.1 KiB (0%)
Language : Russian
Default : No
Forced : No
Text #3
ID : 7
Format : UTF-8
Codec ID : S_TEXT/UTF8
Codec ID/Info : UTF-8 Plain Text
Duration : 1 min 10 s
Bit rate : 30 b/s
Count of elements : 10
Stream size : 268 Bytes (0%)
Title : Forced
Language : English
Default : No
Forced : No
Text #4
ID : 8
Format : UTF-8
Codec ID : S_TEXT/UTF8
Codec ID/Info : UTF-8 Plain Text
Duration : 1 h 59 min
Bit rate : 81 b/s
Count of elements : 2280
Stream size : 71.9 KiB (0%)
Title : SDH
Language : English
Default : No
Forced : No
Text #5
ID : 9
Format : UTF-8
Codec ID : S_TEXT/UTF8
Codec ID/Info : UTF-8 Plain Text
Duration : 2 h 0 min
Bit rate : 59 b/s
Count of elements : 1799
Stream size : 52.4 KiB (0%)
Language : German
Default : No
Forced : No
Text #6
ID : 10
Format : UTF-8
Codec ID : S_TEXT/UTF8
Codec ID/Info : UTF-8 Plain Text
Duration : 2 h 0 min
Bit rate : 59 b/s
Count of elements : 1866
Stream size : 52.8 KiB (0%)
Language : Spanish
Default : No
Forced : No
Text #7
ID : 11
Format : UTF-8
Codec ID : S_TEXT/UTF8
Codec ID/Info : UTF-8 Plain Text
Duration : 1 h 54 min
Bit rate : 56 b/s
Count of elements : 1634
Stream size : 47.0 KiB (0%)
Language : French
Default : No
Forced : No
Text #8
ID : 12
Format : UTF-8
Codec ID : S_TEXT/UTF8
Codec ID/Info : UTF-8 Plain Text
Duration : 1 h 54 min
Bit rate : 59 b/s
Count of elements : 1834
Stream size : 50.1 KiB (0%)
Language : Italian
Default : No
Forced : No
Text #9
ID : 13
Format : UTF-8
Codec ID : S_TEXT/UTF8
Codec ID/Info : UTF-8 Plain Text
Duration : 1 h 54 min
Bit rate : 59 b/s
Count of elements : 1828
Stream size : 50.1 KiB (0%)
Title : Brazilian
Language : Portuguese
Default : No
Forced : No
Text #10
ID : 14
Format : UTF-8
Codec ID : S_TEXT/UTF8
Codec ID/Info : UTF-8 Plain Text
Duration : 1 h 54 min
Bit rate : 59 b/s
Count of elements : 1677
Stream size : 49.6 KiB (0%)
Language : Romanian
Default : No
Forced : No

Скриншоты

--Релиз группа: Filmgrad.Ru ->
[filmgrad.ru].t149210.torrent 
Torrent: Registered [ 2020-06-26 16:07 ] · 4D77CD941C628A8B4399B8D742760BAC8EADCB42

Download .torrent

Download

161 KB

Status: checked
Completed: 0 times
Size: 7.99 GB
Оценка:  5 (Голосов: 1)
Поблагодарили: 0  Спасибо
terms.php
[Profile] [PM]
Display posts:    
Reply to topic

Current time is: 11-Jul 05:27

All times are UTC + 3



You cannot post new topics in this forum
You cannot reply to topics in this forum
You cannot edit your posts in this forum
You cannot delete your posts in this forum
You cannot vote in polls in this forum
You cannot attach files in this forum
You can download files in this forum