Гундала / Gundala (2019) HDRip-AVC | L

Reply to topic
DL-List and Torrent activity
Size:  745 MB   |    Registered:  14 days   |    Completed:  0 times
Seeders:  44  [  0 KB/s  ]   Leechers:  6  [  0 KB/s  ]   Show peers in full details
 
     
 
 
Author Message

STALKER ®

Gender: Male

Longevity: 9 months 18 days

Posts: 810

Post 26-Jun-2020 13:21

[Quote]

Информация о фильме
Название: Гундала
Оригинальное название: Gundala
Год выхода: 2019
Жанр: Боевик, фантастика, драма
Режиссер: Джоко Анвар
В ролях: Абимана Арьясатья, Тара Басро, Бронт Паларэ, Арио Баю, Лукман Сарди, Арсвенди Насутион, Донни Аламшя
О фильме:
Ещё ребенком Санчака потерял родителей — отец погиб, отстаивая права рабочих, а мать уехала на заработки и не вернулась — с тех пор мальчик выживал самостоятельно. Нелегкая жизнь на улице научила его не только эффективно махать ногами, а и думать в первую очередь о собственной безопасности, но когда волна насилия захлёстывает город, мужчине приходится встать на сторону униженных и оскорбленных. А поскольку в результате удара молнии наш герой получил свехспособности, врагам простого народа придётся несладко.
Страна: Индонезия
Студия: Screenplay Films, Bumilangit Studios, Legacy Pictures
Продолжительность: 02:00:07
Перевод: Любительский многоголосый | @MUZOBOZ@
Файл
Формат: MKV
Качество: HDRip-AVC
Видео: MPEG-4 AVC, 760x318, - 790 Кбит/с
Аудио: AAC-HE, 2 ch, - 76 Кбит/с
Субтитры: Нет

MI

Общее
Уникальный идентификатор : 330066346472061219446629395835844225369 (0xF850774DC66B76EC7DD35C2A42B2E959)
Полное имя : D:MOVIESGundala.2019.HDRip-AVC.ExKinoRay.mkv
Формат : Matroska
Версия формата : Version 4
Размер файла : 745 Мбайт
Продолжительность : 2 ч. 0 м.
Общий поток : 866 Кбит/сек
Дата кодирования : UTC 2020-06-26 04:28:26
Программа кодирования : mkvmerge v45.0.0 ('Heaven in Pennies') 64-bit
Библиотека кодирования : libebml v1.3.10 + libmatroska v1.5.2
Видео
Идентификатор : 1
Формат : AVC
Формат/Информация : Advanced Video Codec
Профиль формата : High@L4.1
Настройки формата : CABAC / 11 Ref Frames
Параметр CABAC формата : Да
Параметр RefFrames формата : 11 кадров
Идентификатор кодека : V_MPEG4/ISO/AVC
Продолжительность : 2 ч. 0 м.
Битрейт : 790 Кбит/сек
Ширина : 760 пикселей
Высота : 318 пикселей
Соотношение сторон : 2,40:1
Режим частоты кадров : Постоянный
Частота кадров : 23,976 (24000/1001) кадра/сек
Цветовое пространство : YUV
Субдискретизация насыщенности : 4:2:0
Битовая глубина : 8 бит
Тип развёртки : Прогрессивная
Бит/(Пиксели*Кадры) : 0.136
Размер потока : 678 Мбайт (91%)
Библиотека кодирования : x264 core 160 r3000 33f9e14
Настройки программы : cabac=1 / ref=11 / deblock=1:-3:-3 / analyse=0x3:0x133 / me=umh / subme=10 / psy=1 / psy_rd=1.05:0.12 / mixed_ref=1 / me_range=32 / chroma_me=1 / trellis=2 / 8x8dct=1 / cqm=0 / deadzone=21,11 / fast_pskip=0 / chroma_qp_offset=-3 / threads=6 / lookahead_threads=1 / sliced_threads=0 / nr=0 / decimate=0 / interlaced=0 / bluray_compat=0 / constrained_intra=0 / bframes=10 / b_pyramid=2 / b_adapt=2 / b_bias=0 / direct=3 / weightb=1 / open_gop=0 / weightp=2 / keyint=240 / keyint_min=23 / scenecut=40 / intra_refresh=0 / rc=2pass / mbtree=0 / bitrate=790 / ratetol=1.0 / qcomp=0.60 / qpmin=0 / qpmax=69 / qpstep=4 / cplxblur=20.0 / qblur=0.5 / ip_ratio=1.40 / pb_ratio=1.30 / aq=3:1.00
Default : Да
Forced : Нет
Цветовой диапазон : Limited
Основные цвета : BT.709
Характеристики трансфера : BT.709
Коэффициенты матрицы : BT.709
Аудио
Идентификатор : 2
Формат : AAC LC SBR
Формат/Информация : Advanced Audio Codec Low Complexity with Spectral Band Replication
Коммерческое название : HE-AAC
Настройки формата : Explicit
Идентификатор кодека : A_AAC-2
Продолжительность : 2 ч. 0 м.
Битрейт : 76,0 Кбит/сек
Каналы : 2 канала
Channel layout : L R
Частота : 48,0 КГц
Частота кадров : 23,438 кадра/сек (2048 SPF)
Метод сжатия : С потерями
Задержка видео : 31 мс.
Размер потока : 65,3 Мбайт (9%)
Язык : Russian
Default : Да
Forced : Нет
Меню
00:00:00.000 : en:Глава 01
00:10:11.193 : en:Глава 02
00:19:56.403 : en:Глава 03
00:30:55.436 : en:Глава 04
00:41:31.155 : en:Глава 05
00:53:05.932 : en:Глава 06
01:04:59.478 : en:Глава 07
01:16:29.585 : en:Глава 08
01:27:29.202 : en:Глава 09
01:37:49.822 : en:Глава 10
01:47:08.255 : en:Глава 11
01:55:53.112 : en:Глава 12

Скриншоты

--Релиз группа: Filmgrad.Ru ->
[filmgrad.ru].t149204.torrent 
Torrent: Registered [ 2020-06-26 13:21 ] · 779530ABAC066C8FEF3117D6C8686B4E9E187AD9

Download .torrent

Download

16 KB

Status: checked
Completed: 0 times
Size: 745 MB
Оценка:  5 (Голосов: 1)
Поблагодарили: 0  Спасибо
terms.php
[Profile] [PM]
Display posts:    
Reply to topic

Current time is: 11-Jul 05:07

All times are UTC + 3



You cannot post new topics in this forum
You cannot reply to topics in this forum
You cannot edit your posts in this forum
You cannot delete your posts in this forum
You cannot vote in polls in this forum
You cannot attach files in this forum
You can download files in this forum