После полуночи / After Midnight (2019) BDRip 1080p | iTunes

Reply to topic
DL-List and Torrent activity
Size:  10.2 GB   |    Registered:  15 days   |    Completed:  0 times
Seeders:  79  [  0 KB/s  ]   Leechers:  18  [  0 KB/s  ]   Show peers in full details
 
     
 
 
Author Message

STALKER ®

Gender: Male

Longevity: 9 months 19 days

Posts: 815

Post 26-Jun-2020 13:19

[Quote]

Информация о фильме
Название: После полуночи
Оригинальное название: After Midnight
Год выхода: 2019
Жанр: Ужасы, фантастика, драма
Режиссер: Джереми Гарднер, Кристиан Стелла
В ролях: Джереми Гарднер, Бриа Грант, Джастин Бенсон, Эшли Сонг, Никола Маскотра, Кит Арбетнот, Генри Жебровский
О фильме: После долгих лет гражданского брака Хэнка бросила девушка, но погрузиться в пучину меланхолии и как следует поныть и пострадать у него не получается. По ночам к его дому начинает приходить какое-то страшное существо и с явно недобрыми намерениями скрестись в дверь. Мужчина пытается противостоять монстру, попутно вспоминая развалившиеся отношения и пытаясь понять, что же пошло не так.
Страна: США
Студия: Rustic Films, Kavya Films, Vested Interest
Продолжительность: 01:23:26
Перевод: Дублированный | iTunes
Качество: BDRip 1080p
Видео: MPEG-4 AVC, 1920x804, 16.5 Mbit/s, 23.976 fps
Аудио #01: 48 kHz, AC3, 5.1, 384 Kbps | iTunes | RUS |
Аудио #02: 48 kHz, AC3, 5.1, 640 Kbps | Оригинал | ENG |
Субтитры: Русские (Full), английские

MI

General
Unique ID : 216727328395942119869552370518789807462 (0xA30C2A476ED0976EC89AE44985B15D66)
Complete name : E:Video111After.Midnight.2019.BDRip.1080p.seleZen.mkv
Format : Matroska
Format version : Version 4
File size : 10.2 GiB
Duration : 1 h 23 min
Overall bit rate : 17.5 Mb/s
Movie name : After Midnight 2019 from селезень
Encoded date : UTC 2020-06-26 09:02:54
Writing application : mkvmerge v40.0.0 ('Old Town Road + Pony') 64-bit
Writing library : libebml v1.3.9 + libmatroska v1.5.2
Cover : Yes
Attachments : cover.jpg
Video
ID : 1
Format : AVC
Format/Info : Advanced Video Codec
Format profile : High@L4.1
Format settings : CABAC / 5 Ref Frames
Format settings, CABAC : Yes
Format settings, Reference : 5 frames
Codec ID : V_MPEG4/ISO/AVC
Duration : 1 h 23 min
Bit rate : 16.5 Mb/s
Width : 1 920 pixels
Height : 804 pixels
Display aspect ratio : 2.40:1
Frame rate mode : Constant
Frame rate : 23.976 (24000/1001) FPS
Color space : YUV
Chroma subsampling : 4:2:0
Bit depth : 8 bits
Scan type : Progressive
Bits/(Pixel*Frame) : 0.445
Stream size : 9.61 GiB (94%)
Writing library : x264 core 160 r3000 33f9e14
Encoding settings : cabac=1 / ref=5 / deblock=1:-3:-3 / analyse=0x3:0x133 / me=umh / subme=10 / psy=1 / psy_rd=1.20:0.00 / mixed_ref=1 / me_range=24 / chroma_me=1 / trellis=2 / 8x8dct=1 / cqm=0 / deadzone=21,11 / fast_pskip=0 / chroma_qp_offset=-2 / threads=24 / lookahead_threads=4 / sliced_threads=0 / nr=0 / decimate=0 / interlaced=0 / bluray_compat=0 / constrained_intra=0 / bframes=8 / b_pyramid=2 / b_adapt=2 / b_bias=0 / direct=3 / weightb=1 / open_gop=0 / weightp=2 / keyint=250 / keyint_min=23 / scenecut=40 / intra_refresh=0 / rc=crf / mbtree=0 / crf=16.0 / qcomp=0.60 / qpmin=0 / qpmax=69 / qpstep=4 / ip_ratio=1.40 / pb_ratio=1.30 / aq=3:0.90
Language : English
Default : Yes
Forced : No
Color range : Limited
Matrix coefficients : BT.709
Audio #1
ID : 2
Format : AC-3
Format/Info : Audio Coding 3
Commercial name : Dolby Digital
Codec ID : A_AC3
Duration : 1 h 23 min
Bit rate mode : Constant
Bit rate : 384 kb/s
Channel(s) : 6 channels
Channel layout : L R C LFE Ls Rs
Sampling rate : 48.0 kHz
Frame rate : 31.250 FPS (1536 SPF)
Compression mode : Lossy
Stream size : 229 MiB (2%)
Title : iTunes
Language : Russian
Service kind : Complete Main
Default : Yes
Forced : Yes
Audio #2
ID : 3
Format : AC-3
Format/Info : Audio Coding 3
Commercial name : Dolby Digital
Codec ID : A_AC3
Duration : 1 h 23 min
Bit rate mode : Constant
Bit rate : 640 kb/s
Channel(s) : 6 channels
Channel layout : L R C LFE Ls Rs
Sampling rate : 48.0 kHz
Frame rate : 31.250 FPS (1536 SPF)
Compression mode : Lossy
Stream size : 382 MiB (4%)
Title : Original
Language : English
Service kind : Complete Main
Default : No
Forced : No
Text #1
ID : 4
Format : UTF-8
Codec ID : S_TEXT/UTF8
Codec ID/Info : UTF-8 Plain Text
Duration : 1 h 19 min
Bit rate : 71 b/s
Count of elements : 826
Stream size : 41.4 KiB (0%)
Title : Full
Language : Russian
Default : No
Forced : No
Text #2
ID : 5
Format : UTF-8
Codec ID : S_TEXT/UTF8
Codec ID/Info : UTF-8 Plain Text
Duration : 1 h 22 min
Bit rate : 54 b/s
Count of elements : 1014
Stream size : 33.0 KiB (0%)
Title : Full
Language : English
Default : No
Forced : No
Menu
00:00:00.000 : en:Chapter 01
00:07:28.073 : en:Chapter 02
00:12:56.234 : en:Chapter 03
00:20:23.514 : en:Chapter 04
00:26:56.865 : en:Chapter 05
00:33:33.595 : en:Chapter 06
00:40:03.943 : en:Chapter 07
00:45:48.204 : en:Chapter 08
00:51:15.531 : en:Chapter 09
01:06:04.961 : en:Chapter 10
01:14:16.535 : en:Chapter 11
01:18:37.087 : en:Chapter 12
--Релиз группа: Filmgrad.Ru ->
[filmgrad.ru].t149200.torrent 
Torrent: Registered [ 2020-06-26 13:19 ] · 4CC6EBA3608A8D08B9379E072D218F4C920C0326

Download .torrent

Download

14 KB

Status: checked
Completed: 0 times
Size: 10.2 GB
Оценка:  5 (Голосов: 1)
Поблагодарили: 0  Спасибо
terms.php
[Profile] [PM]
Display posts:    
Reply to topic

Current time is: 12-Jul 06:34

All times are UTC + 3



You cannot post new topics in this forum
You cannot reply to topics in this forum
You cannot edit your posts in this forum
You cannot delete your posts in this forum
You cannot vote in polls in this forum
You cannot attach files in this forum
You can download files in this forum