Почти знамениты / Military Wives (2019) WEB-DL 1080p | iTunes

Reply to topic
DL-List and Torrent activity
Size:  6.66 GB   |    Registered:  11 days   |    Completed:  0 times
Seeders:  84  [  0 KB/s  ]   Leechers:  22  [  0 KB/s  ]   Show peers in full details
 
     
 
 
Author Message

dybrik13 ®

Gender: Male

Longevity: 1 year 5 months

Posts: 7099

Location: Киев

Post 26-Jun-2020 06:28

[Quote]

Почти знамениты / Military Wives- Оригинальное название: Military Wives
Год выхода: 2019
Жанр: Драма, комедия
Режиссер: Питер Каттанео
В ролях: Кристин Скотт Томас, Шэрон Хорган, Эмма Лаундес, Гэби Френч, Лара Росси, Эми Джеймс-Келли, Индия Риа Амартейфио, Грег Уайз,-Что объединяет светскую даму, неуправляемую продавщицу и новобрачную?
Они умеют петь! Всего лишь нужно немного удачи и команда отчаянных женщин
придумает хитроумный план, чтобы стать ближе к своей мечте.
Страна: Великобритания
Студия: 42, Ingenious Media, Koliko Films
Продолжительность: 01:52:46
Перевод: Дублированный | iTunes
Качество: WEB-DL 1080p
Видео: MPEG-4 AVC, 1920x800, 7423 Kbit/s, 23.976 fps
Аудио #01: 48 kHz, AC3, 5.1, 384 Kbps | iTunes | RUS |
Аудио #02: 48 kHz, E-AC3, 5.1, 640 Kbps | Оригинал | ENG |
Субтитры: Английские

Скриншоты

MI

General
Unique ID : 100523004601183089368587535979991344772 (0x4BA006C67BCD7281D5FFC91928852684)
Complete name : E:Video111Military.Wives.2019.WEB-DL.1080p.seleZen.mkv
Format : Matroska
Format version : Version 4
File size : 6.66 GiB
Duration : 1 h 52 min
Overall bit rate : 8 450 kb/s
Movie name : Military Wives 2019 from селезень
Encoded date : UTC 2020-06-25 20:38:26
Writing application : mkvmerge v40.0.0 ('Old Town Road + Pony') 64-bit
Writing library : libebml v1.3.9 + libmatroska v1.5.2
Video
ID : 1
Format : AVC
Format/Info : Advanced Video Codec
Format profile : High@L4
Format settings : CABAC / 4 Ref Frames
Format settings, CABAC : Yes
Format settings, Reference : 4 frames
Codec ID : V_MPEG4/ISO/AVC
Duration : 1 h 52 min
Bit rate mode : Constant
Bit rate : 7 423 kb/s
Nominal bit rate : 10 000 kb/s
Width : 1 920 pixels
Height : 800 pixels
Display aspect ratio : 2.40:1
Frame rate mode : Constant
Frame rate : 23.976 (24000/1001) FPS
Color space : YUV
Chroma subsampling : 4:2:0
Bit depth : 8 bits
Scan type : Progressive
Bits/(Pixel*Frame) : 0.202
Stream size : 5.85 GiB (88%)
Language : English
Default : Yes
Forced : No
Color range : Limited
Color primaries : BT.709
Transfer characteristics : BT.709
Matrix coefficients : BT.709
Audio #1
ID : 2
Format : AC-3
Format/Info : Audio Coding 3
Commercial name : Dolby Digital
Codec ID : A_AC3
Duration : 1 h 52 min
Bit rate mode : Constant
Bit rate : 384 kb/s
Channel(s) : 6 channels
Channel layout : L R C LFE Ls Rs
Sampling rate : 48.0 kHz
Frame rate : 31.250 FPS (1536 SPF)
Compression mode : Lossy
Stream size : 310 MiB (5%)
Title : iTunes
Language : Russian
Service kind : Complete Main
Default : Yes
Forced : Yes
Audio #2
ID : 3
Format : E-AC-3
Format/Info : Enhanced AC-3
Commercial name : Dolby Digital Plus
Codec ID : A_EAC3
Duration : 1 h 52 min
Bit rate mode : Constant
Bit rate : 640 kb/s
Channel(s) : 6 channels
Channel layout : L R C LFE Ls Rs
Sampling rate : 48.0 kHz
Frame rate : 31.250 FPS (1536 SPF)
Compression mode : Lossy
Stream size : 516 MiB (8%)
Title : Original
Language : English
Service kind : Complete Main
Default : No
Forced : No
Text #1
ID : 4
Format : UTF-8
Codec ID : S_TEXT/UTF8
Codec ID/Info : UTF-8 Plain Text
Duration : 1 h 46 min
Bit rate : 69 b/s
Count of elements : 1605
Stream size : 53.9 KiB (0%)
Title : Full
Language : English
Default : No
Forced : No
Text #2
ID : 5
Format : UTF-8
Codec ID : S_TEXT/UTF8
Codec ID/Info : UTF-8 Plain Text
Duration : 1 h 46 min
Bit rate : 75 b/s
Count of elements : 1728
Stream size : 58.3 KiB (0%)
Title : SDH
Language : English
Default : No
Forced : No
Menu
00:00:00.000 : en:Глава 1
00:02:42.333 : en:Глава 2
00:09:03.833 : en:Глава 3
00:16:36.791 : en:Глава 4
00:21:27.916 : en:Глава 5
00:30:42.499 : en:Глава 6
00:38:29.874 : en:Глава 7
00:44:55.499 : en:Глава 8
00:49:47.790 : en:Глава 9
00:57:04.206 : en:Глава 10
01:04:53.456 : en:Глава 11
01:12:22.789 : en:Глава 12
01:18:40.497 : en:Глава 13
01:28:25.997 : en:Глава 14
01:36:47.080 : en:Глава 15
01:44:21.455 : en:Глава 16
--Релиз группа: Filmgrad.Ru ->
[filmgrad.ru].t149194.torrent 
Torrent: Registered [ 2020-06-26 06:28 ] · E4B0E22D85262C99CCFF89F7B4C4F9093A1ECCBD

Download .torrent

Download

9 KB

Status: checked
Completed: 0 times
Size: 6.66 GB
Оценка:  5 (Голосов: 1)
Поблагодарили: 0  Спасибо
terms.php
[Profile] [PM]
Display posts:    
Reply to topic

Current time is: 07-Jul 11:09

All times are UTC + 3



You cannot post new topics in this forum
You cannot reply to topics in this forum
You cannot edit your posts in this forum
You cannot delete your posts in this forum
You cannot vote in polls in this forum
You cannot attach files in this forum
You can download files in this forum