До Москвы в один конец / Moskau Einfach! (2020) WEB-DLRip [H.264/720p-LQ]

Reply to topic
DL-List and Torrent activity
Size:  3.88 GB   |    Registered:  15 days   |    Completed:  1 time

Seeder not seen: 14 days

Leechers:  5  [  0 KB/s  ]   Show peers in full details
 
     
 
 
Author Message

Ольга ®

Gender: Female

Longevity: 10 months 15 days

Posts: 349

Location: Киев

Post 25-Jun-2020 13:12

[Quote]

До Москвы в один конец / Moskau Einfach!- Производство: Швейцария / Langfilm
Жанр: Комедия
Режиссер: Миша Левински
Актеры: Ева Бэй, Saladin Dellers, Томас Р. Дуглас, Vera Flück, Филипп Грабер, Петер Йеклин, Урс Юккер, Камиль Крейчи, Себастиан Крэенбюль, Фабиан Крюгер-Когда пала Берлинская стена Швейцария была наводнена сотнями, а то и тысячами шпионов.
Обычный полицейский внедряется под прикрытием в театральную труппу, чтобы предотвратить возможный политический переворот.
Дата мировой премьеры: 22 января 2020
Продолжительность: 01:37:13
Качество видео: WEB-DLRip
Перевод: Многоголосый закадровый, любительский (AlphaProject)
Субтитры: Отсутствуют
Видео: AVC/H.264, 1280x632, ~5210 Kbps
Аудио: AC-3, 2 ch, 384 Kbps

MediaInfo:

Общее
Полное имя : D:\NNM\До Москвы в один конец\Moskau.Einfach.2020.WEB-DLRip.720p-LQ.mkv
Формат : Matroska
Версия формата : Version 2
Размер файла : 3,88 Гбайт
Продолжительность : 1 ч. 37 м.
Режим общего битрейта : Переменный
Общий поток : 5707 Кбит/сек
Программа кодирования : libmatroska 1.4.1
Библиотека кодирования : SolveigMM Matroska Muxer Version 1.0.1904.23
Видео
Идентификатор : 1
Формат : AVC
Формат/Информация : Advanced Video Codec
Профиль формата : High@L4.1
Настройки формата : CABAC / 4 Ref Frames
Параметр CABAC формата : Да
Параметр RefFrames формата : 4 кадра
Идентификатор кодека : V_MPEG4/ISO/AVC
Продолжительность : 1 ч. 37 м.
Вид битрейта : Переменный
Битрейт : 5210 Кбит/сек
Номинальный битрейт : 6000 Кбит/сек
Максимальный битрейт : 6000 Кбит/сек
Ширина : 1280 пикселей
Высота : 632 пикселя
Соотношение сторон : 2,025
Режим частоты кадров : Постоянный
Частота кадров : 23,976 (24000/1001) кадра/сек
Стандарт вещания : Component
Цветовое пространство : YUV
Субдискретизация насыщенности : 4:2:0
Битовая глубина : 8 бит
Тип развёртки : Прогрессивная
Бит/(Пиксели*Кадры) : 0.269
Размер потока : 3,54 Гбайт (91%)
Default : Нет
Forced : Нет
Цветовой диапазон : Limited
Основные цвета : BT.709
Характеристики трансфера : BT.709
Коэффициенты матрицы : BT.709
Аудио
Идентификатор : 2
Формат : AC-3
Формат/Информация : Audio Coding 3
Коммерческое название : Dolby Digital
Идентификатор кодека : A_AC3
Продолжительность : 1 ч. 37 м.
Вид битрейта : Постоянный
Битрейт : 384 Кбит/сек
Каналы : 2 канала
ChannelLayout : L R
Частота : 48,0 КГц
Частота кадров : 31,250 кадров/сек (1536 SPF)
Метод сжатия : С потерями
Размер потока : 267 Мбайт (7%)
Язык : Russian
ServiceKind/String : Complete Main
Default : Нет
Forced : Нет
Скриншоты: --Релиз группа: Filmgrad.Ru ->
[filmgrad.ru].t149178.torrent 
Torrent: Registered [ 2020-06-25 13:12 ] · 0B47A530BBEB866211E355C2A3E94FA1528D6825

Download .torrent

Download

20 KB

Status: checked
Completed: 1 times
Size: 3.88 GB
Оценка:  5 (Голосов: 1)
Поблагодарили: 0  Спасибо
terms.php
[Profile] [PM]
Display posts:    
Reply to topic

Current time is: 11-Jul 04:35

All times are UTC + 3



You cannot post new topics in this forum
You cannot reply to topics in this forum
You cannot edit your posts in this forum
You cannot delete your posts in this forum
You cannot vote in polls in this forum
You cannot attach files in this forum
You can download files in this forum