Кассирши (2019) WEBRip [H.264/1080p-LQ] (сезон 1, серии 1-4 из 4)

Reply to topic
DL-List and Torrent activity
Size:  3.76 GB   |    Registered:  19 days   |    Completed:  1 time

Seeder not seen: 7 days

Leechers:  23  [  0 KB/s  ]   Show peers in full details
 
     
 
 
Author Message

Ольга ®

Gender: Female

Longevity: 10 months 19 days

Posts: 349

Location: Киев

Post 25-Jun-2020 13:09

[Quote]

Кассирши- Производство: Россия / Эпик Медиа
Жанр: мелодрама
Режиссер: Андрей Силкин
Актеры: Светлана Колпакова, Елена Захарова, Максим Битюков, Эдуард Чекмазов, Александра Никифорова, Наталья Громушкина, Сергей Губанов, Ольга Науменко, Дмитрий Бедерин, Андрей Москвичев-Двадцатилетняя Мария приезжает в Москву, чтобы найти своего отца, о котором почти ничего не знает. Она устраивается в магазин кассиршей, где знакомится с тридцатилетней Ириной и сорокалетней Ольгой. В то время как Ирина стремится выйти замуж, чтобы у ее дочери наконец-то появился папа, одинокая Ольга копит деньги на мечту - собственную квартиру. Однако пока их мечтам не суждено осуществиться...
Возраст: 12+ (зрителям, достигшим 12 лет)
Продолжительность: ~00:50:00 серия
Качество видео: WEBRip
Видео: AVC/H.264, 1920x1080 (16:9), ~2870 Kbps
Аудио: AC3, 2 ch, 192 Kbps

MediaInfo:

Общее
Уникальный идентификатор : 174399965118289107683392027909791045329 (0x83343625A8DD0B2F7F5C202126CE56D1)
Полное имя : D:\1\Кассирши (2019).Серии 1-4.by.Alexandr.mkv
Формат : Matroska
Версия формата : Version 4
Размер файла : 3,76 Гбайт
Продолжительность : 2 ч. 55 м.
Общий поток : 3 064 Кбит/сек
Дата кодирования : UTC 2020-06-25 08:56:06
Программа кодирования : mkvmerge v21.0.0 ('Tardigrades Will Inherit The Earth') 32-bit
Библиотека кодирования : libebml v1.3.5 + libmatroska v1.4.8 / Lavf58.12.100
Видео
Идентификатор : 1
Формат : AVC
Формат/Информация : Advanced Video Codec
Профиль формата : High@L4
Настройки формата : CABAC / 3 Ref Frames
Параметр CABAC формата : Да
Параметр RefFrames формата : 3 кадра
Идентификатор кодека : V_MPEG4/ISO/AVC
Продолжительность : 2 ч. 55 м.
Битрейт : 2 870 Кбит/сек
Ширина : 1 920 пикселей
Высота : 1 080 пикселей
Соотношение сторон : 16:9
Режим частоты кадров : Постоянный
Частота кадров : 25,000 кадров/сек
Цветовое пространство : YUV
Субдискретизация насыщенности : 4:2:0
Битовая глубина : 8 бит
Тип развёртки : Прогрессивная
Бит/(Пиксели*Кадры) : 0.055
Размер потока : 3,52 Гбайт (94%)
Заголовок : ISO Media file produced by Google Inc.
Default : Да
Forced : Нет
Цветовой диапазон : Limited
Основные цвета : BT.709
Характеристики трансфера : BT.709
Коэффициенты матрицы : BT.709
Аудио
Идентификатор : 2
Формат : AC-3
Формат/Информация : Audio Coding 3
Коммерческое название : Dolby Digital
Идентификатор кодека : A_AC3
Продолжительность : 2 ч. 55 м.
Вид битрейта : Постоянный
Битрейт : 192 Кбит/сек
Каналы : 2 канала
Channel layout : L R
Частота : 48,0 КГц
Частота кадров : 31,250 кадров/сек (1536 SPF)
Метод сжатия : С потерями
Размер потока : 241 Мбайт (6%)
Заголовок : ISO Media file produced by Google Inc.
Язык : English
Service kind : Complete Main
Default : Да
Forced : Нет
Скриншоты:
--Релиз группа: Filmgrad.Ru ->
[filmgrad.ru].t149177.torrent 
Torrent: Registered [ 2020-06-25 13:09 ] · 11F0C06981F920835F70318E06D862CFCC6CACC0

Download .torrent

Download

20 KB

Status: checked
Completed: 1 times
Size: 3.76 GB
Оценка:  5 (Голосов: 1)
Поблагодарили: 0  Спасибо
terms.php
[Profile] [PM]
Display posts:    
Reply to topic

Current time is: 15-Jul 09:44

All times are UTC + 3



You cannot post new topics in this forum
You cannot reply to topics in this forum
You cannot edit your posts in this forum
You cannot delete your posts in this forum
You cannot vote in polls in this forum
You cannot attach files in this forum
You can download files in this forum