Операция Дезертир [01-04 из 04] (2020) SATRip от Files-x

Reply to topic
DL-List and Torrent activity
Size:  2.49 GB   |    Registered:  20 days   |    Completed:  5 times
Seeders:  384  [  0 KB/s  ]   Leechers:  38  [  0 KB/s  ]   Show peers in full details
 
     
 
 
Author Message

dybrik13 ®

Gender: Male

Longevity: 1 year 5 months

Posts: 7155

Location: Киев

Post 24-Jun-2020 16:45

[Quote]

Операция Дезертир- Оригинальное название: Операция "Дезертир"
Год выхода: 2020
Жанр: Драма, военный
Режиссер: Александр Сальников
В ролях: Кирилл Мелехов, Вадим Лялько, Сергей Калантай, Сергей Фролов, Вероника Пляшкевич, Виктория Левченко (III), Юрий Фелипенко, Владислав Дмитренко, Ярослав Шахторин, Александр Рудинский, Владимир Фетисов, Валерий Швец, Георгий Поволоцкий, Вадим Курилко, Георгий Лещенко, Константин Октябрьский-Весна 1944 г. Оккупированная Беларусь. В результате проведённой разведывательной операции были получены данные о том, что в квадрате Z находится лагерь для военнопленных советской армии и штрафников Вермахта и СС. Лагерем управляет комендант полковник Блюхер, а помогает ему молодой и дерзкий капитан СС Шульц. Но есть в лагере и третья сила, которая никому не подчиняется и внушает ужас – это полковник СС Оскар Дирлевангер. Командование советских войск принимает решение провести диверсионную операцию, выполнение которой ранее казалось невозможным, цель которой нейтрализовать Оскара Дирлевангера. Возглавить операцию вызвался контрразведчик Александр Громов. Он подготовил крайне рискованную операцию "Дезертир", которая должна пройти в два этапа. Но война вносит жёсткие коррективы в планы группы.
Страна: Россия, Украина
Студия: ООО Кинокомпания Виктория-Универсал "Продакшн"
Продолжительность: 4 х ~ 00:49:50
Перевод: Не требуется
Кодек: XviD
Качество: SATRip
Видео: XviD, ~ 1613 Кбит/с, 720x400, 25 кадр/с
Звук: AC3, 2 ch, 192 Кбит/с

Скриншоты




MediaInfo

General
Complete name : C:01.Операция Дезертир.(2020).SATRip.by.Nicodem.Files-x.avi
Format : AVI
Format/Info : Audio Video Interleave
File size : 648 MiB
Duration : 49mn 54s
Overall bit rate : 1 815 Kbps
Writing application : VirtualDubMod 1.5.10.3 | www.virtualdub-fr.org || (build 2550/release)
Writing library : VirtualDubMod build 2550/release
Video
ID : 0
Format : MPEG-4 Visual
Format profile : Advanced Simple@L5
Format settings, BVOP : 1
Format settings, QPel : No
Format settings, GMC : No warppoints
Format settings, Matrix : Custom
Codec ID : XVID
Codec ID/Hint : XviD
Duration : 49mn 54s
Bit rate : 1 613 Kbps
Width : 720 pixels
Height : 400 pixels
Display aspect ratio : 16:9
Frame rate : 25.000 fps
Color space : YUV
Chroma subsampling : 4:2:0
Bit depth : 8 bits
Scan type : Progressive
Compression mode : Lossy
Bits/(Pixel*Frame) : 0.224
Stream size : 576 MiB (89%)
Writing library : XviD 73
Audio
ID : 1
Format : AC-3
Format/Info : Audio Coding 3
Mode extension : CM (complete main)
Codec ID : 2000
Duration : 49mn 54s
Bit rate mode : Constant
Bit rate : 192 Kbps
Channel(s) : 2 channels
Channel positions : Front: L R
Sampling rate : 48.0 KHz
Bit depth : 16 bits
Compression mode : Lossy
Stream size : 68.5 MiB (11%)
Alignment : Split accross interleaves
Interleave, duration : 40 ms (1.00 video frame)
Interleave, preload duration : 500 ms
--Релиз группа: Filmgrad.Ru ->
[filmgrad.ru].t149162.torrent 
Torrent: Registered [ 2020-06-24 16:45 ] · 05850AE9DA61838F46DD21E066E7F179C8950065

Download .torrent

Download

14 KB

Status: checked
Completed: 5 times
Size: 2.49 GB
Оценка:  5 (Голосов: 1)
Поблагодарили: 0  Спасибо
terms.php
[Profile] [PM]
Display posts:    
Reply to topic

Current time is: 15-Jul 09:28

All times are UTC + 3



You cannot post new topics in this forum
You cannot reply to topics in this forum
You cannot edit your posts in this forum
You cannot delete your posts in this forum
You cannot vote in polls in this forum
You cannot attach files in this forum
You can download files in this forum