Гундала / Gundala (2019) BDRip [H.265/1080p-LQ]

Reply to topic
DL-List and Torrent activity
Size:  3.89 GB   |    Registered:  12 days   |    Completed:  0 times
Seeders:  218  [  0 KB/s  ]   Leechers:  32  [  0 KB/s  ]   Show peers in full details
 
     
 
 
Author Message

dybrik13 ®

Gender: Male

Longevity: 1 year 5 months

Posts: 7099

Location: Киев

Post 24-Jun-2020 15:06

[Quote]

Гундала / Gundala- Производство: Индонезия / Screenplay Films, Bumilangit Studios, Legacy Pictures
Жанр: Боевик, фантастика, драма
Режиссер: Джоко Анвар
Актеры: Абимана Арьясатья, Тара Басро, Бронт Паларэ, Арио Баю, Лукман Сарди, Арсвенди Насутион, Pritt Timothy, Aqi Singgih, Донни Аламшя, Tanta Ginting-Ещё ребенком Санчака потерял родителей — отец погиб, отстаивая права рабочих, а мать уехала на заработки и не вернулась — с тех пор мальчик выживал самостоятельно. Нелегкая жизнь на улице научила его не только эффективно махать ногами, а и думать в первую очередь о собственной безопасности, но когда волна насилия захлёстывает город, мужчине приходится встать на сторону униженных и оскорбленных. А поскольку в результате удара молнии наш герой получил свехспособности, врагам простого народа придётся несладко.
Дата мировой премьеры: 29 августа 2019
Продолжительность: 02:00:07
Качество видео: BDRip
Перевод: Многоголосый закадровый, любительский (MUZOBOZ)
Субтитры: Английские (full)
Видео: HEVC/H.265, 1920x804, 3994 kbps
Аудио 1: AC3, 2 ch, 192 Kbps | Русский (MVO)
Аудио 2: AC3, 6 ch, 448 Kbps | Индонезийский

MediaInfo:

Общее
Уникальный идентификатор : 218801309081018382487742026773789468126 (0xA49B996BEC511F5787C28814F588E5DE)
Полное имя : Gundala.2019.BDRip.HEVC.1080p.mkv
Формат : Matroska
Версия формата : Version 4
Размер файла : 3,89 Гбайт
Продолжительность : 2 ч. 0 м.
Общий поток : 4636 Кбит/сек
Дата кодирования : UTC 2020-06-23 17:52:37
Программа кодирования : mkvmerge v8.3.0 ('Over the Horizon') 64bit
Библиотека кодирования : libebml v1.3.1 + libmatroska v1.4.2
Видео
Идентификатор : 1
Формат : HEVC
Формат/Информация : High Efficiency Video Coding
Профиль формата : Main 10@L4@Main
Идентификатор кодека : V_MPEGH/ISO/HEVC
Продолжительность : 2 ч. 0 м.
Битрейт : 3994 Кбит/сек
Ширина : 1920 пикселей
Высота : 804 пикселя
Соотношение сторон : 2,40:1
Режим частоты кадров : Постоянный
Частота кадров : 23,976 (24000/1001) кадра/сек
Цветовое пространство : YUV
Субдискретизация насыщенности : 4:2:0
Битовая глубина : 10 бит
Бит/(Пиксели*Кадры) : 0.108
Размер потока : 3,35 Гбайт (86%)
Библиотека кодирования : x265 3.4+6-g73f96ff39:[Windows][GCC 11.0.0][64 bit] 10bit
Настройки программы : cpuid=1111039 / frame-threads=3 / numa-pools=12 / wpp / no-pmode / no-pme / no-psnr / no-ssim / log-level=2 / input-csp=1 / input-res=1920x804 / interlace=0 / total-frames=172816 / level-idc=0 / high-tier=1 / uhd-bd=0 / ref=4 / no-allow-non-conformance / no-repeat-headers / annexb / no-aud / no-hrd / info / hash=0 / no-temporal-layers / open-gop / min-keyint=23 / keyint=250 / gop-lookahead=0 / bframes=8 / b-adapt=2 / b-pyramid / bframe-bias=0 / rc-lookahead=60 / lookahead-slices=0 / scenecut=40 / hist-scenecut=0 / radl=0 / no-splice / no-intra-refresh / ctu=64 / min-cu-size=8 / no-rect / no-amp / max-tu-size=32 / tu-inter-depth=1 / tu-intra-depth=1 / limit-tu=0 / rdoq-level=2 / dynamic-rd=0.00 / no-ssim-rd / signhide / no-tskip / nr-intra=0 / nr-inter=0 / no-constrained-intra / no-strong-intra-smoothing / max-merge=3 / limit-refs=3 / limit-modes / me=3 / subme=5 / merange=57 / temporal-mvp / no-frame-dup / no-hme / weightp / no-weightb / no-analyze-src-pics / deblock=0:0 / no-sao / no-sao-non-deblock / rd=4 / selective-sao=0 / no-early-skip / rskip / no-fast-intra / no-tskip-fast / no-cu-lossless / no-b-intra / no-splitrd-skip / rdpenalty=0 / psy-rd=2.00 / psy-rdoq=1.00 / no-rd-refine / no-lossless / cbqpoffs=0 / crqpoffs=0 / rc=crf / crf=18.0 / qcomp=0.60 / qpstep=4 / stats-write=0 / stats-read=0 / ipratio=1.40 / pbratio=1.30 / aq-mode=3 / aq-strength=1.00 / cutree / zone-count=0 / no-strict-cbr / qg-size=32 / no-rc-grain / qpmax=69 / qpmin=0 / no-const-vbv / sar=0 / overscan=0 / videoformat=5 / range=0 / colorprim=2 / transfer=2 / colormatrix=2 / chromaloc=0 / display-window=0 / cll=0,0 / min-luma=0 / max-luma=1023 / log2-max-poc-lsb=8 / vui-timing-info / vui-hrd-info / slices=1 / no-opt-qp-pps / no-opt-ref-list-length-pps / no-multi-pass-opt-rps / scenecut-bias=0.05 / hist-threshold=0.01 / no-opt-cu-delta-qp / no-aq-motion / no-hdr10 / no-hdr10-opt / no-dhdr10-opt / no-idr-recovery-sei / analysis-reuse-level=0 / analysis-save-reuse-level=0 / analysis-load-reuse-level=0 / scale-factor=0 / refine-intra=0 / refine-inter=0 / refine-mv=1 / refine-ctu-distortion=0 / no-limit-sao / ctu-info=0 / no-lowpass-dct / refine-analysis-type=0 / copy-pic=1 / max-ausize-factor=1.0 / no-dynamic-refine / no-single-sei / no-hevc-aq / no-svt / no-field / qp-adaptation-range=1.00 / no-scenecut-aware-qpconformance-window-offsets / right=0 / bottom=0 / decoder-max-rate=0
Default : Да
Forced : Нет
Аудио #1
Идентификатор : 2
Формат : AC-3
Формат/Информация : Audio Coding 3
Коммерческое название : Dolby Digital
Идентификатор кодека : A_AC3
Продолжительность : 2 ч. 0 м.
Вид битрейта : Постоянный
Битрейт : 192 Кбит/сек
Каналы : 2 канала
Channel layout : L R
Частота : 48,0 КГц
Частота кадров : 31,250 кадров/сек (1536 SPF)
Битовая глубина : 16 бит
Метод сжатия : С потерями
Размер потока : 165 Мбайт (4%)
Язык : Russian
ServiceKind/String : Complete Main
Default : Да
Forced : Нет
Аудио #2
Идентификатор : 3
Формат : AC-3
Формат/Информация : Audio Coding 3
Коммерческое название : Dolby Digital
Идентификатор кодека : A_AC3
Продолжительность : 2 ч. 0 м.
Вид битрейта : Постоянный
Битрейт : 448 Кбит/сек
Каналы : 6 каналов
Channel layout : L R C LFE Ls Rs
Частота : 48,0 КГц
Частота кадров : 31,250 кадров/сек (1536 SPF)
Битовая глубина : 16 бит
Метод сжатия : С потерями
Размер потока : 385 Мбайт (10%)
Язык : Indonesian
ServiceKind/String : Complete Main
Default : Нет
Forced : Нет
Текст
Идентификатор : 4
Формат : UTF-8
Идентификатор кодека : S_TEXT/UTF8
Идентификатор кодека/Информация : UTF-8 Plain Text
Продолжительность : 1 ч. 54 м.
Битрейт : 36 бит/сек
ElementCount : 1059
Размер потока : 30,5 Кбайт (0%)
Язык : English
Default : Нет
Forced : Нет
Меню
00:00:00.000 : en:Chapter 01
00:10:11.069 : en:Chapter 02
00:19:56.278 : en:Chapter 03
00:30:55.437 : en:Chapter 04
00:41:31.656 : en:Chapter 05
00:53:05.849 : en:Chapter 06
01:04:59.979 : en:Chapter 07
01:16:29.210 : en:Chapter 08
01:27:29.202 : en:Chapter 09
01:37:49.822 : en:Chapter 10
01:47:07.922 : en:Chapter 11
01:55:53.113 : en:Chapter 12
Скриншоты: --Релиз группа: Filmgrad.Ru ->
[filmgrad.ru].t149159.torrent 
Torrent: Registered [ 2020-06-24 15:06 ] · DA613BF2FB544D0C5857B196A2D0C5A96DE7F076

Download .torrent

Download

79 KB

Status: checked
Completed: 0 times
Size: 3.89 GB
Оценка:  5 (Голосов: 1)
Поблагодарили: 0  Спасибо
terms.php
[Profile] [PM]
Display posts:    
Reply to topic

Current time is: 07-Jul 11:59

All times are UTC + 3



You cannot post new topics in this forum
You cannot reply to topics in this forum
You cannot edit your posts in this forum
You cannot delete your posts in this forum
You cannot vote in polls in this forum
You cannot attach files in this forum
You can download files in this forum