Ранение в сердце / Love Shot (2019) WEB-DL 1080p | HDRezka Studio

Reply to topic
DL-List and Torrent activity
Size:  2.81 GB   |    Registered:  12 days   |    Completed:  0 times
Seeders:  48  [  0 KB/s  ]   Leechers:  13  [  0 KB/s  ]   Show peers in full details
 
     
 
 
Author Message

dybrik13 ®

Gender: Male

Longevity: 1 year 5 months

Posts: 7099

Location: Киев

Post 24-Jun-2020 14:21

[Quote]

Ранение в сердце / Love Shot- Оригинальное название: Love Shot
Год выхода: 2019
Жанр: мелодрама, комедия, криминал
Режиссер: Стивен Файн
В ролях: Дакота Лоеш, Эми Цан, Джон Капелос, Круз Ким, Виктор Дж. Хо, Клинт Юнг, Даниэль Пхай, Синди Чу, Брайан Кертис, Эван Пущак-В центре сюжета оказывается Макс — мужчина средних лет, который живет в Корейском квартале, коллекционирует виниловые пластинки любимых исполнителей и время от времени убивает людей. Однажды он случайно сталкивается на улице с бойкой кореянкой Карен, которая неожиданно разделяет его музыкальные предпочтения. Вскоре судьба вновь сводит их в общественном транспорте, и Макс окончательно понимает, что влюбился в приветливую незнакомку. А через некоторое время, оказавшись в ночном клубе, где в это время выступала Карен, наш герой неожиданно узнает, что она — его следующая цель.
Страна: США
Студия: Long Way Down
Продолжительность: 01:17:27
Перевод: Профессиональный многоголосый, закадровый [HDRezka Studio]
Реклама: отсутствует
Кодек: H.264
Качество: WEB-DL 1080p
Видео: AVC, 1920x1040 (1.85:1), 23.976 fps ~ 4680 Kbps
Звук:
AC3, 48 KHz, 2 ch ~ 192 Kb/s (русский)
E-AC3, 48 KHz, 2 ch ~ 224 Kb/s (английский)
Субтитры: английские

MI:

General
Unique ID : 249643520273242859042207299351821812922 (0xBBCF97D62A3B35FF8C07A82A96CA04BA)
Complete name : J:wotLove.Shot.2019.AMZN.WEB-DL.1080p.mkv
Format : Matroska
Format version : Version 4 / Version 2
File size : 2.81 GiB
Duration : 1h 17mn
Overall bit rate : 5 203 Kbps
Encoded date : UTC 2020-06-24 10:39:30
Writing application : mkvmerge v7.7.0 ('Six Voices') 32bit built on Feb 28 2015 23:23:00
Writing library : libebml v1.3.1 + libmatroska v1.4.2
_STATISTICS_WRITING_APP : mkvmerge v7.7.0 ('Six Voices') 32bit built on Feb 28 2015 23:23:00
_STATISTICS_WRITING_DATE_UTC : 2020-06-24 10:39:30
_STATISTICS_TAGS : BPS DURATION NUMBER_OF_FRAMES NUMBER_OF_BYTES
DURATION : 01:10:28.354000000
NUMBER_OF_FRAMES : 1075
NUMBER_OF_BYTES : 31707
Video
ID : 1
Format : AVC
Format/Info : Advanced Video Codec
Format profile : High@L4
Format settings, CABAC : Yes
Format settings, ReFrames : 4 frames
Codec ID : V_MPEG4/ISO/AVC
Duration : 1h 17mn
Bit rate mode : Constant
Bit rate : 4 683 Kbps
Nominal bit rate : 10 000 Kbps
Width : 1 920 pixels
Height : 1 040 pixels
Display aspect ratio : 1.85:1
Frame rate mode : Constant
Frame rate : 23.976 fps
Color space : YUV
Chroma subsampling : 4:2:0
Bit depth : 8 bits
Scan type : Progressive
Bits/(Pixel*Frame) : 0.098
Stream size : 2.53 GiB (90%)
Language : English
Default : Yes
Forced : No
Color range : Limited
Color primaries : BT.709
Transfer characteristics : BT.709
Matrix coefficients : BT.709
Audio #1
ID : 2
Format : AC-3
Format/Info : Audio Coding 3
Mode extension : CM (complete main)
Format settings, Endianness : Big
Codec ID : A_AC3
Duration : 1h 17mn
Bit rate mode : Constant
Bit rate : 192 Kbps
Channel(s) : 2 channels
Channel positions : Front: L R
Sampling rate : 48.0 KHz
Compression mode : Lossy
Delay relative to video : 600ms
Stream size : 106 MiB (4%)
Title : hdrezka 2.0
Language : Russian
Default : Yes
Forced : No
DURATION : 01:17:26.400000000
NUMBER_OF_FRAMES : 145200
NUMBER_OF_BYTES : 111513600
_STATISTICS_WRITING_APP : mkvmerge v7.7.0 ('Six Voices') 32bit built on Feb 28 2015 23:23:00
_STATISTICS_WRITING_DATE_UTC : 2020-06-24 10:39:30
_STATISTICS_TAGS : BPS DURATION NUMBER_OF_FRAMES NUMBER_OF_BYTES
Audio #2
ID : 3
Format : E-AC-3
Format/Info : Audio Coding 3
Format settings, Endianness : Big
Codec ID : A_EAC3
Duration : 1h 17mn
Bit rate mode : Constant
Bit rate : 224 Kbps
Channel(s) : 2 channels
Channel positions : Front: L R
Sampling rate : 48.0 KHz
Compression mode : Lossy
Stream size : 124 MiB (4%)
Title : English
Language : English
Default : No
Forced : No
Text
ID : 4
Format : UTF-8
Codec ID : S_TEXT/UTF8
Codec ID/Info : UTF-8 Plain Text
Title : English [SDH]
Language : English
Default : No
Forced : No

Скриншоты

--Релиз группа: Filmgrad.Ru ->
[filmgrad.ru].t149155.torrent 
Torrent: Registered [ 2020-06-24 14:21 ] · 0EC13E084EA1111A057A37C48F55A1BBE60907D3

Download .torrent

Download

15 KB

Status: checked
Completed: 0 times
Size: 2.81 GB
Оценка:  5 (Голосов: 1)
Поблагодарили: 0  Спасибо
terms.php
[Profile] [PM]
Display posts:    
Reply to topic

Current time is: 07-Jul 11:38

All times are UTC + 3



You cannot post new topics in this forum
You cannot reply to topics in this forum
You cannot edit your posts in this forum
You cannot delete your posts in this forum
You cannot vote in polls in this forum
You cannot attach files in this forum
You can download files in this forum