Ночные оборотни Волоколамска (2019) WEBRip [H.264/720p-LQ]

Reply to topic
DL-List and Torrent activity
Size:  904 MB   |    Registered:  17 days   |    Completed:  0 times

Seeder not seen: Never

Leechers:  20  [  0 KB/s  ]   Show peers in full details
 
     
 
 
Author Message

dybrik13 ®

Gender: Male

Longevity: 1 year 5 months

Posts: 7120

Location: Киев

Post 24-Jun-2020 14:07

[Quote]

Ночные оборотни Волоколамска- Производство: Россия
Жанр: Документальный, криминал
Режиссер: Михаил Елкин-Документальный фильм о серии жестоких бандитских налетов, происходивших в Волоколамском районе на протяжении нескольких лет. Группа вооруженных грабителей проникала в дома, где хранились ценные семейные реликвии. Та же банда попыталась ограбить деревенский храм, уже в Тверской области. Преступлений с одинаковым почерком становилось всё больше, а зацепок – слишком мало...
Продолжительность: 00:44:48
Качество видео: WEBRip
Субтитры: Отсутствуют
Видео: AVC/H.264, 1280x720 (16:9), ~2570 Kbps
Аудио: AC3, 2 ch, 256 Kbps - русский

MediaInfo:

Общее
Уникальный идентификатор : 57528736750362789183083763913653258681 (0x2B47A1B595F6F779C5746F3713E889B9)
Полное имя : D:\1\Ночные оборотни Волоколамска (2019).mkv
Формат : Matroska
Версия формата : Version 4
Размер файла : 904 Мбайт
Продолжительность : 44 м. 48 с.
Общий поток : 2 821 Кбит/сек
Программа кодирования : Lavf58.12.100
Библиотека кодирования : Lavf58.12.100
ErrorDetectionType : Per level 1
Видео
Идентификатор : 1
Формат : AVC
Формат/Информация : Advanced Video Codec
Профиль формата : High@L4
Настройки формата : CABAC / 4 Ref Frames
Параметр CABAC формата : Да
Параметр RefFrames формата : 4 кадра
Идентификатор кодека : V_MPEG4/ISO/AVC
Продолжительность : 44 м. 48 с.
Битрейт : 2 569 Кбит/сек
Ширина : 1 280 пикселей
Высота : 720 пикселей
Соотношение сторон : 16:9
Режим частоты кадров : Постоянный
Частота кадров : 25,000 кадров/сек
Цветовое пространство : YUV
Субдискретизация насыщенности : 4:2:0
Битовая глубина : 8 бит
Тип развёртки : Прогрессивная
Бит/(Пиксели*Кадры) : 0.112
Размер потока : 804 Мбайт (89%)
Библиотека кодирования : x264 core 148
Настройки программы : cabac=1 / ref=3 / deblock=1:0:0 / analyse=0x3:0x113 / me=hex / subme=7 / psy=1 / psy_rd=1.00:0.00 / mixed_ref=1 / me_range=16 / chroma_me=1 / trellis=1 / 8x8dct=1 / cqm=0 / deadzone=21,11 / fast_pskip=1 / chroma_qp_offset=-2 / threads=22 / lookahead_threads=3 / sliced_threads=0 / nr=0 / decimate=1 / interlaced=0 / bluray_compat=0 / constrained_intra=0 / bframes=6 / b_pyramid=2 / b_adapt=1 / b_bias=0 / direct=1 / weightb=1 / open_gop=0 / weightp=2 / keyint=50 / keyint_min=26 / scenecut=0 / intra_refresh=0 / rc_lookahead=40 / rc=2pass / mbtree=1 / bitrate=2569 / ratetol=1.0 / qcomp=0.60 / qpmin=0 / qpmax=69 / qpstep=4 / cplxblur=20.0 / qblur=0.5 / vbv_maxrate=3854 / vbv_bufsize=10279 / nal_hrd=none / filler=0 / ip_ratio=1.40 / aq=1:1.00
Default : Да
Forced : Нет
Аудио
Идентификатор : 2
Формат : AC-3
Формат/Информация : Audio Coding 3
Коммерческое название : Dolby Digital
Идентификатор кодека : A_AC3
Продолжительность : 44 м. 48 с.
Вид битрейта : Постоянный
Битрейт : 256 Кбит/сек
Каналы : 2 канала
Channel layout : L R
Частота : 48,0 КГц
Частота кадров : 31,250 кадров/сек (1536 SPF)
Битовая глубина : 16 бит
Метод сжатия : С потерями
Размер потока : 82,1 Мбайт (9%)
Язык : Russian
Service kind : Complete Main
Default : Да
Forced : Нет
Скриншоты:
--Релиз группа: Filmgrad.Ru ->
[filmgrad.ru].t149152.torrent 
Torrent: Registered [ 2020-06-24 14:07 ] · 82F8E3A8469160A9669FE5AFD5B5E6DF1F72BA95

Download .torrent

Download

19 KB

Status: checked
Completed: 0 times
Size: 904 MB
Оценка:  5 (Голосов: 1)
Поблагодарили: 0  Спасибо
terms.php
[Profile] [PM]
Display posts:    
Reply to topic

Current time is: 12-Jul 09:47

All times are UTC + 3



You cannot post new topics in this forum
You cannot reply to topics in this forum
You cannot edit your posts in this forum
You cannot delete your posts in this forum
You cannot vote in polls in this forum
You cannot attach files in this forum
You can download files in this forum