Адмиралы района (Сергей Полуянов, Михаил Вассербаум) (Серии 1–16 из 16) [2020, детектив, триллер, HDTV 1080p]

Reply to topic
DL-List and Torrent activity
Size:  40.32 GB   |    Registered:  21 day   |    Completed:  0 times
Seeders:  8  [  0 KB/s  ]   Leechers:  8  [  0 KB/s  ]   Show peers in full details
 
     
 
 
Author Message

kneht ®

Gender: Male

Longevity: 10 months 19 days

Posts: 704

Location: СССР

Post 23-Jun-2020 19:08

[Quote]

--Адмиралы района-- Год выпуска: 2020
Страна: Россия / «Триикс Медиа»
Жанр: детектив, триллер
Продолжительность: 16 x ~ 00:50:00
Язык: Русский
Режиссер: Сергей Полуянов, Михаил Вассербаум
В ролях: Максим Дахненко, Эдуард Флёров, Заза Чантурия, Евгений Никитин, Андрей Коровниченко, Денис Васильев, Георгий Болонев, Алексей Фалилеев, Сергей Шоколов, Жанна Куприянова, …-Описание:
Действие сериала развивается в Новоадмиралтейском районе Санкт-Петербурга. К началу сериала криминальная обстановка в районе оставляет желать лучшего. В крупном торговом центре предотвращен теракт – случайно оказавшемуся на месте бывшему полковнику МВД Игнатьеву удалось отогнать в безлюдное место автомобиль, начиненный взрывчаткой. Жертв нет, однако сам Игнатьев не успевает выскочить из автомобиля и погибает от взрыва...- -Качество видео: HDTV 1080p
Формат видео: MKV
Видеокодек: H.264
Аудиокодек: AC3
Видео: 1920x1080 (1.78:1), 25.000 fps, MPEG-4 AVC, ~ 7050 kbps avg
Аудио: 48.0 kHz, AC3 Dolby Digital, 2/0 (L,R) ch, ~192.00 kbps avg
Cубтитры: нет
-

MediaInfo:

General
Unique ID : 235129502269981623938165815655130591904 (0xB0E44B8013EBE92D982AE2EF0F09F2A0)
Complete name : E:\Запись с тв\Admiraly rajona 2020 HDTV 1080p.R.G.Generalfilm\Admiraly rajona.s01.e01.2020.HDTV 1080p.by.White Smoke.R.G.Generalfilm.mkv
Format : Matroska
Format version : Version 4 / Version 2
File size : 2.52 GiB
Duration : 49 min
Overall bit rate mode : Constant
Overall bit rate : 7 234 kb/s
Movie name : Admiraly rajona.s01.e01.2020.HDTV 1080p.by.White Smoke.R.G.Generalfilm.mkv
Encoded date : UTC 2020-05-22 15:12:41
Writing application : mkvmerge v6.8.0 ('Theme for Great Cities') 64bit built on Mar 2 2014 21:34:26
Writing library : libebml v1.3.0 + libmatroska v1.4.1
Cover : Yes
Attachments : cover.jpg
Video
ID : 1
Format : AVC
Format/Info : Advanced Video Codec
Format profile : High@L4.1
Format settings, CABAC : Yes
Format settings, ReFrames : 3 frames
Codec ID : V_MPEG4/ISO/AVC
Duration : 49 min
Bit rate mode : Constant
Bit rate : 7 051 kb/s
Width : 1 920 pixels
Height : 1 080 pixels
Display aspect ratio : 16:9
Frame rate mode : Constant
Frame rate : 25.000 FPS
Standard : PAL
Color space : YUV
Chroma subsampling : 4:2:0
Bit depth : 8 bits
Scan type : Progressive
Bits/(Pixel*Frame) : 0.136
Stream size : 2.40 GiB (95%)
Default : Yes
Forced : No
Color range : Limited
Color primaries : BT.709
Transfer characteristics : BT.709
Matrix coefficients : BT.709
Audio
ID : 2
Format : AC-3
Format/Info : Audio Coding 3
Mode extension : CM (complete main)
Format settings, Endianness : Big
Codec ID : A_AC3
Duration : 49 min
Bit rate mode : Constant
Bit rate : 192 kb/s
Channel(s) : 2 channels
Channel positions : Front: L R
Sampling rate : 48.0 kHz
Frame rate : 31.250 FPS (1536 spf)
Compression mode : Lossy
Stream size : 68.5 MiB (3%)
Default : Yes
Forced : No
-

Скриншоты:

- --Релиз группа: Filmgrad.Ru ->
[filmgrad.ru].t149148.torrent 
 GOLD TORRENT! DOWNLOAD TRAFFIC DOES NOT CONSIDER! 
Torrent: Registered [ 2020-06-23 19:08 ] · 179837266CF2DDFA137E4F73D76F888D95C7D58E

Download .torrent

Download

103 KB

Status: checked
Completed: 0 times
Size: 40.32 GB
Оценка:  5 (Голосов: 2)
Поблагодарили: 1  Спасибо   (список)
terms.php
[Profile] [PM]
Display posts:    
Reply to topic

Current time is: 15-Jul 08:20

All times are UTC + 3



You cannot post new topics in this forum
You cannot reply to topics in this forum
You cannot edit your posts in this forum
You cannot delete your posts in this forum
You cannot vote in polls in this forum
You cannot attach files in this forum
You can download files in this forum