Становление / Becoming (2020) WEB-DLRip [H.264/720p-LQ]

Reply to topic
DL-List and Torrent activity
Size:  3.91 GB   |    Registered:  14 days   |    Completed:  0 times

Seeder not seen: Never

Leechers:  11  [  0 KB/s  ]   Show peers in full details
 
     
 
 
Author Message

dybrik13 ®

Gender: Male

Longevity: 1 year 5 months

Posts: 7099

Location: Киев

Post 23-Jun-2020 08:33

[Quote]

Становление / Becoming- Производство: США / Traverse Media, BondIt Media Capital, Fearless Productions
Жанр: Фантастика, триллер, драма
Режиссер: Омар Наим
Актеры: Тоби Кеббелл, Пенелопа Митчелл, Джейсон Патрик, Джеффри Дэниэл Филлипс, Бет Бродерик, Стефен Райдер, Мелисса Болона, Лью Темпл, Джон Ньюберг, Зандер Эссекс-Молодая супружеская пара Алекс и Лиза сталкивается с древним злом: Алекс оказывается во власти мрачной сущности, которая начинает вытеснять его собственную личность.
Дата мировой премьеры: 6 марта 2020
Продолжительность: 01:38:16
Качество видео: WEB-DLRip
Перевод: Многоголосый закадровый, любительский (AlphaProject)
Субтитры: Отсутствуют
Видео: AVC/H.264, 1280x640, ~5205 Kbps
Аудио: AC-3, 2 ch, 384 Kbps

MediaInfo:

Общее
Полное имя : D:\NNM\Становление\Becoming.2020.WEB-DLRip.720p-LQ.mkv
Формат : Matroska
Версия формата : Version 2
Размер файла : 3,91 Гбайт
Продолжительность : 1 ч. 38 м.
Режим общего битрейта : Переменный
Общий поток : 5703 Кбит/сек
Программа кодирования : libmatroska 1.4.1
Библиотека кодирования : SolveigMM Matroska Muxer Version 1.0.1502.31
Видео
Идентификатор : 1
Формат : AVC
Формат/Информация : Advanced Video Codec
Профиль формата : High@L4.1
Настройки формата : CABAC / 4 Ref Frames
Параметр CABAC формата : Да
Параметр RefFrames формата : 4 кадра
Идентификатор кодека : V_MPEG4/ISO/AVC
Продолжительность : 1 ч. 38 м.
Вид битрейта : Переменный
Битрейт : 5205 Кбит/сек
Номинальный битрейт : 6000 Кбит/сек
Максимальный битрейт : 6000 Кбит/сек
Ширина : 1280 пикселей
Высота : 640 пикселей
Соотношение сторон : 2,000
Режим частоты кадров : Постоянный
Частота кадров : 23,976 (24000/1001) кадра/сек
Стандарт вещания : Component
Цветовое пространство : YUV
Субдискретизация насыщенности : 4:2:0
Битовая глубина : 8 бит
Тип развёртки : Прогрессивная
Бит/(Пиксели*Кадры) : 0.265
Размер потока : 3,57 Гбайт (91%)
Default : Нет
Forced : Нет
Цветовой диапазон : Limited
Основные цвета : BT.709
Характеристики трансфера : BT.709
Коэффициенты матрицы : BT.709
Аудио
Идентификатор : 2
Формат : AC-3
Формат/Информация : Audio Coding 3
Коммерческое название : Dolby Digital
Идентификатор кодека : A_AC3
Продолжительность : 1 ч. 38 м.
Вид битрейта : Постоянный
Битрейт : 384 Кбит/сек
Каналы : 2 канала
ChannelLayout : L R
Частота : 48,0 КГц
Частота кадров : 31,250 кадров/сек (1536 SPF)
Метод сжатия : С потерями
Размер потока : 270 Мбайт (7%)
Язык : Russian
ServiceKind/String : Complete Main
Default : Нет
Forced : Нет
Скриншоты: --Релиз группа: Filmgrad.Ru ->
[filmgrad.ru].t149140.torrent 
Torrent: Registered [ 2020-06-23 08:33 ] · CEF9B96A9FA1EA94C434CF29B33F8B3F8E2566A0

Download .torrent

Download

20 KB

Status: checked
Completed: 0 times
Size: 3.91 GB
Оценка:  5 (Голосов: 1)
Поблагодарили: 0  Спасибо
terms.php
[Profile] [PM]
Display posts:    
Reply to topic

Current time is: 07-Jul 11:22

All times are UTC + 3



You cannot post new topics in this forum
You cannot reply to topics in this forum
You cannot edit your posts in this forum
You cannot delete your posts in this forum
You cannot vote in polls in this forum
You cannot attach files in this forum
You can download files in this forum