VA - Love: The Love Album (2020) Box Set, 4 CD [FLAC|Lossless|tracks + .cue] <Pop, Rock, Dance>

Reply to topic
DL-List and Torrent activity
Size:  1.94 GB   |    Registered:  15 days   |    Completed:  0 times

Seeder not seen: Never

Leechers:  9  [  0 KB/s  ]   Show peers in full details
 
     
 
 
Author Message

dybrik13 ®

Gender: Male

Longevity: 1 year 5 months

Posts: 7099

Location: Киев

Post 21-Jun-2020 19:49

[Quote]

VA - Love: The Love Album- Жанр: Pop, Rock, Dance
Издание: Sony Music - 19439721082
Релиз состоялся: 24 января 2020 года
Тип издания: Box Set, 4CD
Продолжительность: 05:11:54
Кодек: FLAC
Битрейт: Lossless
Тип рипа: tracks + .cue
Наличие сканов: Да, полные-Описание: Мне известно около десятка дисков, выпущенных в разные годы, с аналогичным названием. Собственно, половина треков кочует из одного издания в другое. Но знаю, что Sony всегда подходит к своим сборникам достаточно скрупулёзно. Именно поэтому данный бокссет заинтересовал меня. Кроме того, в сборник попали около десятка треков последней пятилетки, а композиции George Ezra, Shawn Mendes и Ariana Grande - совсем свеженькие. И признаюсь, что если вам нужна музыка для души, то именно в этом сборнике вы её найдете.-Треклист:
CD1:
01. George Michael - I Can't Make You Love Me (5:22)
02. Whitney Houston - I Will Always Love You (4:32)
03. Lady Gaga - Million Reasons (3:24)
04. Celine Dion - Think Twice (4:43)
05. Take That - Back For Good (4:01)
06. Lady Antebellum - Need You Now (3:55)
07. Lionel Richie & Diana Ross - Endless Love (4:28)
08. Joe Cocker & Jennifer Warnes - Up Where We Belong (3:54)
09. 10cc - I'm Not In Love (3:44)
10. Dusty Springfield - The Look Of Love (3:34)
11. Sade - No Ordinary Love (4:00)
12. Amy Winehouse - Love Is A Losing Game (2:34)

Продолжение треклиста&#58;

13. Paloma Faith - Only Love Can Hurt Like This (3:53)
14. P!nk - What About Us (4:30)
15. Maroon 5 - This Love (3:26)
16. Crowded House - Don't Dream It's Over (3:54)
17. The Beach Boys - God Only Knows (2:52)
18. The Mamas & The Papas - Dedicated To The One I Love (2:59)
19. Elvis Presley - Always On My Mind (3:38)
20. Rod Stewart - Reason To Believe (4:07)
Продoлжитeльность - 01:17:31

Отчёт ЕАС&#58;

Exact Audio Copy V1.5 from 20. February 2020
EAC extraction logfile from 20. June 2020, 20:37
Various Artists / Love-The Love Album
Used drive : ASUS DRW-24D5MT Adapter: 1 ID: 0
Read mode : Secure
Utilize accurate stream : Yes
Defeat audio cache : Yes
Make use of C2 pointers : No
Read offset correction : 6
Overread into Lead-In and Lead-Out : No
Fill up missing offset samples with silence : Yes
Delete leading and trailing silent blocks : No
Null samples used in CRC calculations : Yes
Used interface : Native Win32 interface for Win NT & 2000
Gap handling : Appended to previous track
Used output format : User Defined Encoder
Selected bitrate : 896 kBit/s
Quality : High
Add ID3 tag : No
Command line compressor : C:\Program Files (x86)\Exact Audio Copy\FLAC\FLAC.EXE
Additional command line options : -6 -V -T "ARTIST=%artist%" -T "TITLE=%title%" -T "ALBUM=%albumtitle%" -T "DATE=%year%" -T "TRACKNUMBER=%tracknr%" -T "GENRE=%genre%" -T "COMMENT=%comment%" -T "BAND=%albuminterpret%" -T "ALBUMARTIST=%albuminterpret%" -T "COMPOSER=%composer%" %haslyrics%--tag-from-file=LYRICS="%lyricsfile%"%haslyrics% -T "DISCNUMBER=%cdnumber%" -T "TOTALDISCS=%totalcds%" -T "TOTALTRACKS=%numtracks%" %hascover%--picture="%coverfile%"%hascover% %source% -o %dest%
TOC of the extracted CD
Track | Start | Length | Start sector | End sector
---------------------------------------------------------
1 | 0:00.00 | 5:21.69 | 0 | 24143
2 | 5:21.69 | 4:31.61 | 24144 | 44529
3 | 9:53.55 | 3:24.17 | 44530 | 59846
4 | 13:17.72 | 4:42.69 | 59847 | 81065
5 | 18:00.66 | 4:01.17 | 81066 | 99157
6 | 22:02.08 | 3:55.09 | 99158 | 116791
7 | 25:57.17 | 4:28.17 | 116792 | 136908
8 | 30:25.34 | 3:53.68 | 136909 | 154451
9 | 34:19.27 | 3:44.11 | 154452 | 171262
10 | 38:03.38 | 3:33.73 | 171263 | 187310
11 | 41:37.36 | 3:59.69 | 187311 | 205304
12 | 45:37.30 | 2:34.33 | 205305 | 216887
13 | 48:11.63 | 3:53.19 | 216888 | 234381
14 | 52:05.07 | 4:30.04 | 234382 | 254635
15 | 56:35.11 | 3:26.33 | 254636 | 270118
16 | 60:01.44 | 3:54.08 | 270119 | 287676
17 | 63:55.52 | 2:52.12 | 287677 | 300588
18 | 66:47.64 | 2:58.71 | 300589 | 314009
19 | 69:46.60 | 3:37.64 | 314010 | 330348
20 | 73:24.49 | 4:07.13 | 330349 | 348886
Track 1
Filename F:\EAC Rips\VA - Love-The Love Album (2020, Sony Music - 19439721082, CD)\CD1\01. George Michael - I Can't Make You Love Me.wav
Pre-gap length 0:00:02.00
Peak level 100.0 %
Extraction speed 5.1 X
Track quality 100.0 %
Test CRC C39C703A
Copy CRC C39C703A
Track not present in AccurateRip database
Copy OK
Track 2
Filename F:\EAC Rips\VA - Love-The Love Album (2020, Sony Music - 19439721082, CD)\CD1\02. Whitney Houston - I Will Always Love You.wav
Pre-gap length 0:00:01.08
Peak level 94.4 %
Extraction speed 5.5 X
Track quality 100.0 %
Test CRC 78B7D36A
Copy CRC 78B7D36A
Track not present in AccurateRip database
Copy OK
Track 3
Filename F:\EAC Rips\VA - Love-The Love Album (2020, Sony Music - 19439721082, CD)\CD1\03. Lady Gaga - Million Reasons.wav
Pre-gap length 0:00:01.89
Peak level 89.0 %
Extraction speed 5.6 X
Track quality 100.0 %
Test CRC A8896FB0
Copy CRC A8896FB0
Track not present in AccurateRip database
Copy OK
Track 4
Filename F:\EAC Rips\VA - Love-The Love Album (2020, Sony Music - 19439721082, CD)\CD1\04. Celine Dion - Think Twice.wav
Pre-gap length 0:00:00.74
Peak level 98.8 %
Extraction speed 6.2 X
Track quality 100.0 %
Test CRC 7836DC64
Copy CRC 7836DC64
Track not present in AccurateRip database
Copy OK
Track 5
Filename F:\EAC Rips\VA - Love-The Love Album (2020, Sony Music - 19439721082, CD)\CD1\05. Take That - Back For Good.wav
Pre-gap length 0:00:00.97
Peak level 87.1 %
Extraction speed 6.5 X
Track quality 100.0 %
Test CRC DF37CC47
Copy CRC DF37CC47
Track not present in AccurateRip database
Copy OK
Track 6
Filename F:\EAC Rips\VA - Love-The Love Album (2020, Sony Music - 19439721082, CD)\CD1\06. Lady Antebellum - Need You Now.wav
Pre-gap length 0:00:01.25
Peak level 74.9 %
Extraction speed 6.7 X
Track quality 100.0 %
Test CRC 1FE69B54
Copy CRC 1FE69B54
Track not present in AccurateRip database
Copy OK
Track 7
Filename F:\EAC Rips\VA - Love-The Love Album (2020, Sony Music - 19439721082, CD)\CD1\07. Lionel Richie & Diana Ross - Endless Love.wav
Pre-gap length 0:00:01.48
Peak level 100.0 %
Extraction speed 6.4 X
Track quality 99.9 %
Test CRC 69B11F94
Copy CRC 69B11F94
Track not present in AccurateRip database
Copy OK
Track 8
Filename F:\EAC Rips\VA - Love-The Love Album (2020, Sony Music - 19439721082, CD)\CD1\08. Joe Cocker & Jennifer Warnes - Up Where We Belong.wav
Pre-gap length 0:00:02.14
Peak level 97.9 %
Extraction speed 7.3 X
Track quality 100.0 %
Test CRC 6A1FB2CD
Copy CRC 6A1FB2CD
Track not present in AccurateRip database
Copy OK
Track 9
Filename F:\EAC Rips\VA - Love-The Love Album (2020, Sony Music - 19439721082, CD)\CD1\09. 10cc - I'm Not In Love.wav
Pre-gap length 0:00:01.81
Peak level 88.1 %
Extraction speed 7.5 X
Track quality 100.0 %
Test CRC C340A422
Copy CRC C340A422
Track not present in AccurateRip database
Copy OK
Track 10
Filename F:\EAC Rips\VA - Love-The Love Album (2020, Sony Music - 19439721082, CD)\CD1\10. Dusty Springfield - The Look Of Love.wav
Pre-gap length 0:00:01.05
Peak level 99.8 %
Extraction speed 7.6 X
Track quality 100.0 %
Test CRC C0408D99
Copy CRC C0408D99
Track not present in AccurateRip database
Copy OK
Track 11
Filename F:\EAC Rips\VA - Love-The Love Album (2020, Sony Music - 19439721082, CD)\CD1\11. Sade - No Ordinary Love.wav
Pre-gap length 0:00:00.86
Peak level 88.2 %
Extraction speed 8.0 X
Track quality 100.0 %
Test CRC 6B42926C
Copy CRC 6B42926C
Track not present in AccurateRip database
Copy OK
Track 12
Filename F:\EAC Rips\VA - Love-The Love Album (2020, Sony Music - 19439721082, CD)\CD1\12. Amy Winehouse - Love Is A Losing Game.wav
Pre-gap length 0:00:01.53
Peak level 79.4 %
Extraction speed 7.6 X
Track quality 100.0 %
Test CRC DD5F4B15
Copy CRC DD5F4B15
Track not present in AccurateRip database
Copy OK
Track 13
Filename F:\EAC Rips\VA - Love-The Love Album (2020, Sony Music - 19439721082, CD)\CD1\13. Paloma Faith - Only Love Can Hurt Like This.wav
Pre-gap length 0:00:01.85
Peak level 71.9 %
Extraction speed 8.3 X
Track quality 100.0 %
Test CRC DF931A5F
Copy CRC DF931A5F
Track not present in AccurateRip database
Copy OK
Track 14
Filename F:\EAC Rips\VA - Love-The Love Album (2020, Sony Music - 19439721082, CD)\CD1\14. P!nk - What About Us.wav
Pre-gap length 0:00:01.58
Peak level 79.4 %
Extraction speed 8.7 X
Track quality 100.0 %
Test CRC 0A98713B
Copy CRC 0A98713B
Track not present in AccurateRip database
Copy OK
Track 15
Filename F:\EAC Rips\VA - Love-The Love Album (2020, Sony Music - 19439721082, CD)\CD1\15. Maroon 5 - This Love.wav
Pre-gap length 0:00:01.29
Peak level 84.1 %
Extraction speed 8.6 X
Track quality 100.0 %
Test CRC 63CBC4E3
Copy CRC 63CBC4E3
Track not present in AccurateRip database
Copy OK
Track 16
Filename F:\EAC Rips\VA - Love-The Love Album (2020, Sony Music - 19439721082, CD)\CD1\16. Crowded House - Don't Dream It's Over.wav
Pre-gap length 0:00:01.69
Peak level 100.0 %
Extraction speed 8.9 X
Track quality 100.0 %
Test CRC 2FFC83DB
Copy CRC 2FFC83DB
Track not present in AccurateRip database
Copy OK
Track 17
Filename F:\EAC Rips\VA - Love-The Love Album (2020, Sony Music - 19439721082, CD)\CD1\17. The Beach Boys - God Only Knows.wav
Pre-gap length 0:00:00.72
Peak level 92.1 %
Extraction speed 8.8 X
Track quality 100.0 %
Test CRC 0D4F7060
Copy CRC 0D4F7060
Track not present in AccurateRip database
Copy OK
Track 18
Filename F:\EAC Rips\VA - Love-The Love Album (2020, Sony Music - 19439721082, CD)\CD1\18. The Mamas & The Papas - Dedicated To The One I Love.wav
Pre-gap length 0:00:00.98
Peak level 98.8 %
Extraction speed 7.7 X
Track quality 99.9 %
Test CRC C2242355
Copy CRC C2242355
Track not present in AccurateRip database
Copy OK
Track 19
Filename F:\EAC Rips\VA - Love-The Love Album (2020, Sony Music - 19439721082, CD)\CD1\19. Elvis Presley - Always On My Mind.wav
Pre-gap length 0:00:01.96
Peak level 100.0 %
Extraction speed 9.4 X
Track quality 100.0 %
Test CRC 06F77833
Copy CRC 06F77833
Track not present in AccurateRip database
Copy OK
Track 20
Filename F:\EAC Rips\VA - Love-The Love Album (2020, Sony Music - 19439721082, CD)\CD1\20. Rod Stewart - Reason To Believe.wav
Pre-gap length 0:00:00.72
Peak level 99.9 %
Extraction speed 9.6 X
Track quality 100.0 %
Test CRC 7CD9BFB6
Copy CRC 7CD9BFB6
Track not present in AccurateRip database
Copy OK
None of the tracks are present in the AccurateRip database
No errors occurred
End of status report
---- AcoustID Plugin V1.2.0
Total fingerprints: 20
---- CUETools DB Plugin V2.1.6
[CTDB TOCID: IkFGHFpw78wnmu29u_bUH_40kBs-] found
Submit result: IkFGHFpw78wnmu29u_bUH_40kBs- has been confirmed
Track | CTDB Status
1 | (3/3) Accurately ripped
2 | (3/3) Accurately ripped
3 | (3/3) Accurately ripped
4 | (3/3) Accurately ripped
5 | (3/3) Accurately ripped
6 | (3/3) Accurately ripped
7 | (3/3) Accurately ripped
8 | (3/3) Accurately ripped
9 | (3/3) Accurately ripped
10 | (3/3) Accurately ripped
11 | (3/3) Accurately ripped
12 | (3/3) Accurately ripped
13 | (3/3) Accurately ripped
14 | (3/3) Accurately ripped
15 | (3/3) Accurately ripped
16 | (3/3) Accurately ripped
17 | (3/3) Accurately ripped
18 | (3/3) Accurately ripped
19 | (3/3) Accurately ripped
20 | (3/3) Accurately ripped
==== Log checksum F36C05F9746CA6F95E1BC0E6C9CCED752095C1B92AC921F6C09C82B38F319D7B ====

Cue Sheet (.cue&#41;&#58;

REM DATE 2020
REM DISCID 43122B14
REM COMMENT "ExactAudioCopy v1.5"
PERFORMER "Various Artists"
TITLE "Love-The Love Album"
REM COMPOSER ""
FILE "01. George Michael - I Can't Make You Love Me.wav" WAVE
TRACK 01 AUDIO
TITLE "I Can't Make You Love Me"
PERFORMER "George Michael"
REM COMPOSER ""
INDEX 01 00:00:00
TRACK 02 AUDIO
TITLE "I Will Always Love You"
PERFORMER "Whitney Houston"
REM COMPOSER ""
INDEX 00 05:20:63
FILE "02. Whitney Houston - I Will Always Love You.wav" WAVE
INDEX 01 00:00:00
TRACK 03 AUDIO
TITLE "Million Reasons"
PERFORMER "Lady Gaga"
REM COMPOSER ""
INDEX 00 04:29:69
FILE "03. Lady Gaga - Million Reasons.wav" WAVE
INDEX 01 00:00:00
TRACK 04 AUDIO
TITLE "Think Twice"
PERFORMER "Celine Dion"
REM COMPOSER ""
INDEX 00 03:23:36
FILE "04. Celine Dion - Think Twice.wav" WAVE
INDEX 01 00:00:00
TRACK 05 AUDIO
TITLE "Back For Good"
PERFORMER "Take That"
REM COMPOSER ""
INDEX 00 04:41:71
FILE "05. Take That - Back For Good.wav" WAVE
INDEX 01 00:00:00
TRACK 06 AUDIO
TITLE "Need You Now"
PERFORMER "Lady Antebellum"
REM COMPOSER ""
INDEX 00 03:59:73
FILE "06. Lady Antebellum - Need You Now.wav" WAVE
INDEX 01 00:00:00
TRACK 07 AUDIO
TITLE "Endless Love"
PERFORMER "Lionel Richie & Diana Ross"
REM COMPOSER ""
INDEX 00 03:53:48
FILE "07. Lionel Richie & Diana Ross - Endless Love.wav" WAVE
INDEX 01 00:00:00
TRACK 08 AUDIO
TITLE "Up Where We Belong"
PERFORMER "Joe Cocker & Jennifer Warnes"
REM COMPOSER ""
INDEX 00 04:26:06
FILE "08. Joe Cocker & Jennifer Warnes - Up Where We Belong.wav" WAVE
INDEX 01 00:00:00
TRACK 09 AUDIO
TITLE "I'm Not In Love"
PERFORMER "10cc"
REM COMPOSER ""
INDEX 00 03:52:07
FILE "09. 10cc - I'm Not In Love.wav" WAVE
INDEX 01 00:00:00
TRACK 10 AUDIO
TITLE "The Look Of Love"
PERFORMER "Dusty Springfield"
REM COMPOSER ""
INDEX 00 03:43:07
FILE "10. Dusty Springfield - The Look Of Love.wav" WAVE
INDEX 01 00:00:00
TRACK 11 AUDIO
TITLE "No Ordinary Love"
PERFORMER "Sade"
REM COMPOSER ""
INDEX 00 03:33:08
FILE "11. Sade - No Ordinary Love.wav" WAVE
INDEX 01 00:00:00
TRACK 12 AUDIO
TITLE "Love Is A Losing Game"
PERFORMER "Amy Winehouse"
REM COMPOSER ""
INDEX 00 03:58:29
FILE "12. Amy Winehouse - Love Is A Losing Game.wav" WAVE
INDEX 01 00:00:00
TRACK 13 AUDIO
TITLE "Only Love Can Hurt Like This"
PERFORMER "Paloma Faith"
REM COMPOSER ""
INDEX 00 02:32:44
FILE "13. Paloma Faith - Only Love Can Hurt Like This.wav" WAVE
INDEX 01 00:00:00
TRACK 14 AUDIO
TITLE "What About Us"
PERFORMER "P!nk"
REM COMPOSER ""
INDEX 00 03:51:50
FILE "14. P!nk - What About Us.wav" WAVE
INDEX 01 00:00:00
TRACK 15 AUDIO
TITLE "This Love"
PERFORMER "Maroon 5"
REM COMPOSER ""
INDEX 00 04:28:57
FILE "15. Maroon 5 - This Love.wav" WAVE
INDEX 01 00:00:00
TRACK 16 AUDIO
TITLE "Don't Dream It's Over"
PERFORMER "Crowded House"
REM COMPOSER ""
INDEX 00 03:24:56
FILE "16. Crowded House - Don't Dream It's Over.wav" WAVE
INDEX 01 00:00:00
TRACK 17 AUDIO
TITLE "God Only Knows"
PERFORMER "The Beach Boys"
REM COMPOSER ""
INDEX 00 03:53:29
FILE "17. The Beach Boys - God Only Knows.wav" WAVE
INDEX 01 00:00:00
TRACK 18 AUDIO
TITLE "Dedicated To The One I Love"
PERFORMER "The Mamas & The Papas"
REM COMPOSER ""
INDEX 00 02:51:13
FILE "18. The Mamas & The Papas - Dedicated To The One I Love.wav" WAVE
INDEX 01 00:00:00
TRACK 19 AUDIO
TITLE "Always On My Mind"
PERFORMER "Elvis Presley"
REM COMPOSER ""
INDEX 00 02:56:74
FILE "19. Elvis Presley - Always On My Mind.wav" WAVE
INDEX 01 00:00:00
TRACK 20 AUDIO
TITLE "Reason To Believe"
PERFORMER "Rod Stewart"
REM COMPOSER ""
INDEX 00 03:37:10
FILE "20. Rod Stewart - Reason To Believe.wav" WAVE
INDEX 01 00:00:00

CD2

Трeклиcт:
01. ABBA - My Love, My Life (3:54)
02. The Commodores - Three Times A Lady (3:39)
03. Marvin Gaye - Let's Get It On (4:01)
04. Donna Summer - Love To Love You Baby (3:23)
05. Captain & Tennille - Do That To Me One More Time (4:15)
06. Kiki Dee - Amoureuse (4:07)
07. Rita Coolidge - We're All Alone (3:39)
08. Cyndi Lauper - Time After Time (3:59)
09. ABC - All Of My Heart (5:15)
10. Roxy Music - Oh Yeah! (4:50)
11. Sad Cafe - Every Day Hurts (3:59)
12. Earth, Wind & Fire - After The Love Has Gone (4:25)
13. The Jackson Five - I'll Be There (3:58)
14. Minnie Riperton - Lovin' You (3:23)
15. Art Garfunkel - I Only Have Eyes For You (3:37)
16. Nick Heyward - Whistle Down The Wind (3:41)
17. The Bangles - Eternal Flame (3:54)
18. Gloria Estefan And The Miami Sound Machine - Anything For You (3:36)
19. Alison Moyet - All Cried Out (3:39)
20. UB40 Feat. Chrissie Hynde - I Got You Babe (3:07)
Продoлжитeльность - 01:18:22

Отчёт ЕАС&#58;

Exact Audio Copy V1.5 from 20. February 2020
EAC extraction logfile from 20. June 2020, 20:38
Various Artists / Love-The Love Album
Used drive : TSSTcorpCD/DVDW SH-S182D Adapter: 1 ID: 1
Read mode : Secure
Utilize accurate stream : Yes
Defeat audio cache : Yes
Make use of C2 pointers : No
Read offset correction : 6
Overread into Lead-In and Lead-Out : No
Fill up missing offset samples with silence : Yes
Delete leading and trailing silent blocks : No
Null samples used in CRC calculations : Yes
Used interface : Native Win32 interface for Win NT & 2000
Gap handling : Appended to previous track
Used output format : User Defined Encoder
Selected bitrate : 896 kBit/s
Quality : High
Add ID3 tag : No
Command line compressor : C:\Program Files (x86)\Exact Audio Copy\FLAC\FLAC.EXE
Additional command line options : -6 -V -T "ARTIST=%artist%" -T "TITLE=%title%" -T "ALBUM=%albumtitle%" -T "DATE=%year%" -T "TRACKNUMBER=%tracknr%" -T "GENRE=%genre%" -T "COMMENT=%comment%" -T "BAND=%albuminterpret%" -T "ALBUMARTIST=%albuminterpret%" -T "COMPOSER=%composer%" %haslyrics%--tag-from-file=LYRICS="%lyricsfile%"%haslyrics% -T "DISCNUMBER=%cdnumber%" -T "TOTALDISCS=%totalcds%" -T "TOTALTRACKS=%numtracks%" %hascover%--picture="%coverfile%"%hascover% %source% -o %dest%
TOC of the extracted CD
Track | Start | Length | Start sector | End sector
---------------------------------------------------------
1 | 0:00.00 | 3:53.60 | 0 | 17534
2 | 3:53.60 | 3:38.50 | 17535 | 33934
3 | 7:32.35 | 4:01.24 | 33935 | 52033
4 | 11:33.59 | 3:22.60 | 52034 | 67243
5 | 14:56.44 | 4:15.06 | 67244 | 86374
6 | 19:11.50 | 4:07.22 | 86375 | 104921
7 | 23:18.72 | 3:39.33 | 104922 | 121379
8 | 26:58.30 | 3:58.72 | 121380 | 139301
9 | 30:57.27 | 5:14.50 | 139302 | 162901
10 | 36:12.02 | 4:49.54 | 162902 | 184630
11 | 41:01.56 | 3:58.58 | 184631 | 202538
12 | 45:00.39 | 4:25.25 | 202539 | 222438
13 | 49:25.64 | 3:58.36 | 222439 | 240324
14 | 53:24.25 | 3:22.67 | 240325 | 255541
15 | 56:47.17 | 3:36.73 | 255542 | 271814
16 | 60:24.15 | 3:40.52 | 271815 | 288366
17 | 64:04.67 | 3:54.18 | 288367 | 305934
18 | 67:59.10 | 3:36.35 | 305935 | 322169
19 | 71:35.45 | 3:39.13 | 322170 | 338607
20 | 75:14.58 | 3:06.65 | 338608 | 352622
Track 1
Filename F:\EAC Rips\VA - Love-The Love Album (2020, Sony Music - 19439721082, CD)\CD2\01. ABBA - My Love, My Life.wav
Pre-gap length 0:00:02.00
Peak level 88.3 %
Extraction speed 4.8 X
Track quality 100.0 %
Test CRC 94028055
Copy CRC 94028055
Track not present in AccurateRip database
Copy OK
Track 2
Filename F:\EAC Rips\VA - Love-The Love Album (2020, Sony Music - 19439721082, CD)\CD2\02. The Commodores - Three Times A Lady.wav
Pre-gap length 0:00:01.50
Peak level 100.0 %
Extraction speed 5.2 X
Track quality 100.0 %
Test CRC E5A40BA8
Copy CRC E5A40BA8
Track not present in AccurateRip database
Copy OK
Track 3
Filename F:\EAC Rips\VA - Love-The Love Album (2020, Sony Music - 19439721082, CD)\CD2\03. Marvin Gaye - Let's Get It On.wav
Pre-gap length 0:00:01.17
Peak level 100.0 %
Extraction speed 5.0 X
Track quality 99.9 %
Test CRC 5DA7C656
Copy CRC 5DA7C656
Track not present in AccurateRip database
Copy OK
Track 4
Filename F:\EAC Rips\VA - Love-The Love Album (2020, Sony Music - 19439721082, CD)\CD2\04. Donna Summer - Love To Love You Baby.wav
Pre-gap length 0:00:00.74
Peak level 100.0 %
Extraction speed 5.8 X
Track quality 100.0 %
Test CRC 8FFA644F
Copy CRC 8FFA644F
Track not present in AccurateRip database
Copy OK
Track 5
Filename F:\EAC Rips\VA - Love-The Love Album (2020, Sony Music - 19439721082, CD)\CD2\05. Captain & Tennille - Do That To Me One More Time.wav
Pre-gap length 0:00:01.46
Peak level 74.9 %
Extraction speed 6.3 X
Track quality 100.0 %
Test CRC 04EC04AA
Copy CRC 04EC04AA
Track not present in AccurateRip database
Copy OK
Track 6
Filename F:\EAC Rips\VA - Love-The Love Album (2020, Sony Music - 19439721082, CD)\CD2\06. Kiki Dee - Amoureuse.wav
Pre-gap length 0:00:01.29
Peak level 77.9 %
Extraction speed 5.9 X
Track quality 99.9 %
Test CRC 5D9DE91B
Copy CRC 5D9DE91B
Track not present in AccurateRip database
Copy OK
Track 7
Filename F:\EAC Rips\VA - Love-The Love Album (2020, Sony Music - 19439721082, CD)\CD2\07. Rita Coolidge - We're All Alone.wav
Pre-gap length 0:00:01.13
Peak level 89.1 %
Extraction speed 6.0 X
Track quality 99.9 %
Test CRC 56DEF13D
Copy CRC 56DEF13D
Track not present in AccurateRip database
Copy OK
Track 8
Filename F:\EAC Rips\VA - Love-The Love Album (2020, Sony Music - 19439721082, CD)\CD2\08. Cyndi Lauper - Time After Time.wav
Pre-gap length 0:00:01.36
Peak level 78.2 %
Extraction speed 7.2 X
Track quality 100.0 %
Test CRC FF42CB72
Copy CRC FF42CB72
Track not present in AccurateRip database
Copy OK
Track 9
Filename F:\EAC Rips\VA - Love-The Love Album (2020, Sony Music - 19439721082, CD)\CD2\09. ABC - All Of My Heart.wav
Pre-gap length 0:00:00.62
Peak level 100.0 %
Extraction speed 7.7 X
Track quality 100.0 %
Test CRC 30C69755
Copy CRC 30C69755
Track not present in AccurateRip database
Copy OK
Track 10
Filename F:\EAC Rips\VA - Love-The Love Album (2020, Sony Music - 19439721082, CD)\CD2\10. Roxy Music - Oh Yeah!.wav
Pre-gap length 0:00:01.32
Peak level 79.4 %
Extraction speed 8.0 X
Track quality 100.0 %
Test CRC 83B8732F
Copy CRC 83B8732F
Track not present in AccurateRip database
Copy OK
Track 11
Filename F:\EAC Rips\VA - Love-The Love Album (2020, Sony Music - 19439721082, CD)\CD2\11. Sad Cafe - Every Day Hurts.wav
Pre-gap length 0:00:00.70
Peak level 94.4 %
Extraction speed 8.1 X
Track quality 100.0 %
Test CRC 17AD4DD1
Copy CRC 17AD4DD1
Track not present in AccurateRip database
Copy OK
Track 12
Filename F:\EAC Rips\VA - Love-The Love Album (2020, Sony Music - 19439721082, CD)\CD2\12. Earth, Wind & Fire - After The Love Has Gone.wav
Pre-gap length 0:00:01.42
Peak level 97.7 %
Extraction speed 8.4 X
Track quality 100.0 %
Test CRC 3B818347
Copy CRC 3B818347
Track not present in AccurateRip database
Copy OK
Track 13
Filename F:\EAC Rips\VA - Love-The Love Album (2020, Sony Music - 19439721082, CD)\CD2\13. The Jackson Five - I'll Be There.wav
Pre-gap length 0:00:01.21
Peak level 75.1 %
Extraction speed 8.5 X
Track quality 100.0 %
Test CRC CB747239
Copy CRC CB747239
Track not present in AccurateRip database
Copy OK
Track 14
Filename F:\EAC Rips\VA - Love-The Love Album (2020, Sony Music - 19439721082, CD)\CD2\14. Minnie Riperton - Lovin' You.wav
Pre-gap length 0:00:01.34
Peak level 89.1 %
Extraction speed 8.5 X
Track quality 100.0 %
Test CRC 3B4D12A8
Copy CRC 3B4D12A8
Track not present in AccurateRip database
Copy OK
Track 15
Filename F:\EAC Rips\VA - Love-The Love Album (2020, Sony Music - 19439721082, CD)\CD2\15. Art Garfunkel - I Only Have Eyes For You.wav
Pre-gap length 0:00:00.70
Peak level 100.0 %
Extraction speed 8.7 X
Track quality 100.0 %
Test CRC FD3140CD
Copy CRC FD3140CD
Track not present in AccurateRip database
Copy OK
Track 16
Filename F:\EAC Rips\VA - Love-The Love Album (2020, Sony Music - 19439721082, CD)\CD2\16. Nick Heyward - Whistle Down The Wind.wav
Pre-gap length 0:00:01.30
Peak level 97.7 %
Extraction speed 8.9 X
Track quality 100.0 %
Test CRC E3D50934
Copy CRC E3D50934
Track not present in AccurateRip database
Copy OK
Track 17
Filename F:\EAC Rips\VA - Love-The Love Album (2020, Sony Music - 19439721082, CD)\CD2\17. The Bangles - Eternal Flame.wav
Pre-gap length 0:00:01.21
Peak level 88.2 %
Extraction speed 9.2 X
Track quality 100.0 %
Test CRC B1BC9BF7
Copy CRC B1BC9BF7
Track not present in AccurateRip database
Copy OK
Track 18
Filename F:\EAC Rips\VA - Love-The Love Album (2020, Sony Music - 19439721082, CD)\CD2\18. Gloria Estefan And The Miami Sound Machine - Anything For You.wav
Pre-gap length 0:00:01.05
Peak level 100.0 %
Extraction speed 8.0 X
Track quality 99.9 %
Test CRC 9136CDAF
Copy CRC 9136CDAF
Track not present in AccurateRip database
Copy OK
Track 19
Filename F:\EAC Rips\VA - Love-The Love Album (2020, Sony Music - 19439721082, CD)\CD2\19. Alison Moyet - All Cried Out.wav
Pre-gap length 0:00:00.38
Peak level 100.0 %
Extraction speed 9.5 X
Track quality 100.0 %
Test CRC 258889A1
Copy CRC 258889A1
Track not present in AccurateRip database
Copy OK
Track 20
Filename F:\EAC Rips\VA - Love-The Love Album (2020, Sony Music - 19439721082, CD)\CD2\20. UB40 Feat. Chrissie Hynde - I Got You Babe.wav
Pre-gap length 0:00:01.20
Peak level 78.6 %
Extraction speed 8.9 X
Track quality 100.0 %
Test CRC B5225B2C
Copy CRC B5225B2C
Track not present in AccurateRip database
Copy OK
None of the tracks are present in the AccurateRip database
No errors occurred
End of status report
---- AcoustID Plugin V1.2.0
Total fingerprints: 20
---- CUETools DB Plugin V2.1.6
[CTDB TOCID: 4eYPL6Qq02YE0fp3jdjGK.NuO0Q-] found
Submit result: 4eYPL6Qq02YE0fp3jdjGK.NuO0Q- has been confirmed
Track | CTDB Status
1 | (3/3) Accurately ripped
2 | (3/3) Accurately ripped
3 | (3/3) Accurately ripped
4 | (3/3) Accurately ripped
5 | (3/3) Accurately ripped
6 | (3/3) Accurately ripped
7 | (3/3) Accurately ripped
8 | (3/3) Accurately ripped
9 | (3/3) Accurately ripped
10 | (3/3) Accurately ripped
11 | (3/3) Accurately ripped
12 | (3/3) Accurately ripped
13 | (3/3) Accurately ripped
14 | (3/3) Accurately ripped
15 | (3/3) Accurately ripped
16 | (3/3) Accurately ripped
17 | (3/3) Accurately ripped
18 | (3/3) Accurately ripped
19 | (3/3) Accurately ripped
20 | (3/3) Accurately ripped
==== Log checksum 9B37B877FF007629A90AE1CDDC6A9C7A62E1248698E3FAD11399D10A0908DD65 ====

Cue Sheet (.cue&#41;&#58;

REM DATE 2020
REM DISCID 2A125D14
REM COMMENT "ExactAudioCopy v1.5"
PERFORMER "Various Artists"
TITLE "Love-The Love Album"
REM COMPOSER ""
FILE "01. ABBA - My Love, My Life.wav" WAVE
TRACK 01 AUDIO
TITLE "My Love, My Life"
PERFORMER "ABBA"
REM COMPOSER ""
INDEX 01 00:00:00
TRACK 02 AUDIO
TITLE "Three Times A Lady"
PERFORMER "The Commodores"
REM COMPOSER ""
INDEX 00 03:52:22
FILE "02. The Commodores - Three Times A Lady.wav" WAVE
INDEX 01 00:00:00
TRACK 03 AUDIO
TITLE "Let's Get It On"
PERFORMER "Marvin Gaye"
REM COMPOSER ""
INDEX 00 03:37:37
FILE "03. Marvin Gaye - Let's Get It On.wav" WAVE
INDEX 01 00:00:00
TRACK 04 AUDIO
TITLE "Love To Love You Baby"
PERFORMER "Donna Summer"
REM COMPOSER ""
INDEX 00 04:00:43
FILE "04. Donna Summer - Love To Love You Baby.wav" WAVE
INDEX 01 00:00:00
TRACK 05 AUDIO
TITLE "Do That To Me One More Time"
PERFORMER "Captain & Tennille"
REM COMPOSER ""
INDEX 00 03:21:25
FILE "05. Captain & Tennille - Do That To Me One More Time.wav" WAVE
INDEX 01 00:00:00
TRACK 06 AUDIO
TITLE "Amoureuse"
PERFORMER "Kiki Dee"
REM COMPOSER ""
INDEX 00 04:13:59
FILE "06. Kiki Dee - Amoureuse.wav" WAVE
INDEX 01 00:00:00
TRACK 07 AUDIO
TITLE "We're All Alone"
PERFORMER "Rita Coolidge"
REM COMPOSER ""
INDEX 00 04:06:12
FILE "07. Rita Coolidge - We're All Alone.wav" WAVE
INDEX 01 00:00:00
TRACK 08 AUDIO
TITLE "Time After Time"
PERFORMER "Cyndi Lauper"
REM COMPOSER ""
INDEX 00 03:38:06
FILE "08. Cyndi Lauper - Time After Time.wav" WAVE
INDEX 01 00:00:00
TRACK 09 AUDIO
TITLE "All Of My Heart"
PERFORMER "ABC"
REM COMPOSER ""
INDEX 00 03:58:25
FILE "09. ABC - All Of My Heart.wav" WAVE
INDEX 01 00:00:00
TRACK 10 AUDIO
TITLE "Oh Yeah!"
PERFORMER "Roxy Music"
REM COMPOSER ""
INDEX 00 05:13:26
FILE "10. Roxy Music - Oh Yeah!.wav" WAVE
INDEX 01 00:00:00
TRACK 11 AUDIO
TITLE "Every Day Hurts"
PERFORMER "Sad Cafe"
REM COMPOSER ""
INDEX 00 04:49:01
FILE "11. Sad Cafe - Every Day Hurts.wav" WAVE
INDEX 01 00:00:00
TRACK 12 AUDIO
TITLE "After The Love Has Gone"
PERFORMER "Earth, Wind & Fire"
REM COMPOSER ""
INDEX 00 03:57:26
FILE "12. Earth, Wind & Fire - After The Love Has Gone.wav" WAVE
INDEX 01 00:00:00
TRACK 13 AUDIO
TITLE "I'll Be There"
PERFORMER "The Jackson Five"
REM COMPOSER ""
INDEX 00 04:24:09
FILE "13. The Jackson Five - I'll Be There.wav" WAVE
INDEX 01 00:00:00
TRACK 14 AUDIO
TITLE "Lovin' You"
PERFORMER "Minnie Riperton"
REM COMPOSER ""
INDEX 00 03:57:10
FILE "14. Minnie Riperton - Lovin' You.wav" WAVE
INDEX 01 00:00:00
TRACK 15 AUDIO
TITLE "I Only Have Eyes For You"
PERFORMER "Art Garfunkel"
REM COMPOSER ""
INDEX 00 03:22:14
FILE "15. Art Garfunkel - I Only Have Eyes For You.wav" WAVE
INDEX 01 00:00:00
TRACK 16 AUDIO
TITLE "Whistle Down The Wind"
PERFORMER "Nick Heyward"
REM COMPOSER ""
INDEX 00 03:35:50
FILE "16. Nick Heyward - Whistle Down The Wind.wav" WAVE
INDEX 01 00:00:00
TRACK 17 AUDIO
TITLE "Eternal Flame"
PERFORMER "The Bangles"
REM COMPOSER ""
INDEX 00 03:39:36
FILE "17. The Bangles - Eternal Flame.wav" WAVE
INDEX 01 00:00:00
TRACK 18 AUDIO
TITLE "Anything For You"
PERFORMER "Gloria Estefan And The Miami Sound Machine"
REM COMPOSER ""
INDEX 00 03:53:14
FILE "18. Gloria Estefan And The Miami Sound Machine - Anything For You.wav" WAVE
INDEX 01 00:00:00
TRACK 19 AUDIO
TITLE "All Cried Out"
PERFORMER "Alison Moyet"
REM COMPOSER ""
INDEX 00 03:36:06
FILE "19. Alison Moyet - All Cried Out.wav" WAVE
INDEX 01 00:00:00
TRACK 20 AUDIO
TITLE "I Got You Babe"
PERFORMER "UB40 Feat. Chrissie Hynde"
REM COMPOSER ""
INDEX 00 03:37:73
FILE "20. UB40 Feat. Chrissie Hynde - I Got You Babe.wav" WAVE
INDEX 01 00:00:00

CD3

Трeклиcт:
01. George Ezra - Hold Me Girl (3:30)
02. Shawn Mendes - Lost In Japan (3:20)
03. One Direction - You & I (3:50)
04. James Arthur - Say You Won't Let Go (3:30)
05. John Legend - All Of Me (4:31)
06. Sam Smith - Lay Me Down (4:09)
07. Emeli Sande - Clown (3:40)
08. Ellie Goulding - Love Me Like You Do (4:11)
09. Ariana Grande - No Tears Left To Cry (3:26)
10. Destiny's Child - Emotion (3:57)
11. Christina Aguilera - Beautiful (4:01)
12. Britney Spears - Everytime (3:48)
13. Kelly Clarkson - Because Of You (3:40)
14. Girls Aloud - I'll Stand By You (3:44)
15. Sugababes - Too Lost In You (3:57)
16. James Morrison & Nelly Furtado - Broken Strings (4:12)
17. Shakira - Underneath Your Clothes (3:42)
18. Jennifer Lopez - Baby I Love U! (4:29)
19. Toni Braxton - Un-Break My Heart (4:25)
20. Fugees - Killing Me Softly With His Song (4:47)
Продoлжитeльность - 01:18:50

Отчёт ЕАС&#58;

Exact Audio Copy V1.5 from 20. February 2020
EAC extraction logfile from 20. June 2020, 21:28
Various Artists / Love-The Love Album
Used drive : ASUS DRW-24D5MT Adapter: 1 ID: 0
Read mode : Secure
Utilize accurate stream : Yes
Defeat audio cache : Yes
Make use of C2 pointers : No
Read offset correction : 6
Overread into Lead-In and Lead-Out : No
Fill up missing offset samples with silence : Yes
Delete leading and trailing silent blocks : No
Null samples used in CRC calculations : Yes
Used interface : Native Win32 interface for Win NT & 2000
Gap handling : Appended to previous track
Used output format : User Defined Encoder
Selected bitrate : 896 kBit/s
Quality : High
Add ID3 tag : No
Command line compressor : C:\Program Files (x86)\Exact Audio Copy\FLAC\FLAC.EXE
Additional command line options : -6 -V -T "ARTIST=%artist%" -T "TITLE=%title%" -T "ALBUM=%albumtitle%" -T "DATE=%year%" -T "TRACKNUMBER=%tracknr%" -T "GENRE=%genre%" -T "COMMENT=%comment%" -T "BAND=%albuminterpret%" -T "ALBUMARTIST=%albuminterpret%" -T "COMPOSER=%composer%" %haslyrics%--tag-from-file=LYRICS="%lyricsfile%"%haslyrics% -T "DISCNUMBER=%cdnumber%" -T "TOTALDISCS=%totalcds%" -T "TOTALTRACKS=%numtracks%" %hascover%--picture="%coverfile%"%hascover% %source% -o %dest%
TOC of the extracted CD
Track | Start | Length | Start sector | End sector
---------------------------------------------------------
1 | 0:00.00 | 3:30.23 | 0 | 15772
2 | 3:30.23 | 3:19.64 | 15773 | 30761
3 | 6:50.12 | 3:50.01 | 30762 | 48012
4 | 10:40.13 | 3:29.54 | 48013 | 63741
5 | 14:09.67 | 4:30.74 | 63742 | 84065
6 | 18:40.66 | 4:09.31 | 84066 | 102771
7 | 22:50.22 | 3:39.47 | 102772 | 119243
8 | 26:29.69 | 4:11.00 | 119244 | 138068
9 | 30:40.69 | 3:25.60 | 138069 | 153503
10 | 34:06.54 | 3:56.63 | 153504 | 171266
11 | 38:03.42 | 4:01.33 | 171267 | 189374
12 | 42:05.00 | 3:48.35 | 189375 | 206509
13 | 45:53.35 | 3:40.13 | 206510 | 223022
14 | 49:33.48 | 3:43.67 | 223023 | 239814
15 | 53:17.40 | 3:57.12 | 239815 | 257601
16 | 57:14.52 | 4:12.31 | 257602 | 276532
17 | 61:27.08 | 3:42.12 | 276533 | 293194
18 | 65:09.20 | 4:28.66 | 293195 | 313360
19 | 69:38.11 | 4:25.09 | 313361 | 333244
20 | 74:03.20 | 4:46.55 | 333245 | 354749
Track 1
Filename F:\EAC Rips\VA - Love-The Love Album (2020, Sony Music - 19439721082, CD)\CD3\01. George Ezra - Hold Me Girl.wav
Pre-gap length 0:00:02.00
Peak level 84.5 %
Extraction speed 4.7 X
Track quality 100.0 %
Test CRC 29DDF97E
Copy CRC 29DDF97E
Track not present in AccurateRip database
Copy OK
Track 2
Filename F:\EAC Rips\VA - Love-The Love Album (2020, Sony Music - 19439721082, CD)\CD3\02. Shawn Mendes - Lost In Japan.wav
Pre-gap length 0:00:00.80
Peak level 84.1 %
Extraction speed 4.4 X
Track quality 99.9 %
Test CRC ED6633C6
Copy CRC ED6633C6
Track not present in AccurateRip database
Copy OK
Track 3
Filename F:\EAC Rips\VA - Love-The Love Album (2020, Sony Music - 19439721082, CD)\CD3\03. One Direction - You & I.wav
Pre-gap length 0:00:01.33
Peak level 84.5 %
Extraction speed 5.5 X
Track quality 100.0 %
Test CRC F127B669
Copy CRC F127B669
Track not present in AccurateRip database
Copy OK
Track 4
Filename F:\EAC Rips\VA - Love-The Love Album (2020, Sony Music - 19439721082, CD)\CD3\04. James Arthur - Say You Won't Let Go.wav
Pre-gap length 0:00:01.32
Peak level 83.1 %
Extraction speed 5.7 X
Track quality 100.0 %
Test CRC D07DF78C
Copy CRC D07DF78C
Track not present in AccurateRip database
Copy OK
Track 5
Filename F:\EAC Rips\VA - Love-The Love Album (2020, Sony Music - 19439721082, CD)\CD3\05. John Legend - All Of Me.wav
Pre-gap length 0:00:01.66
Peak level 80.9 %
Extraction speed 6.3 X
Track quality 100.0 %
Test CRC BD8DB1FC
Copy CRC BD8DB1FC
Track not present in AccurateRip database
Copy OK
Track 6
Filename F:\EAC Rips\VA - Love-The Love Album (2020, Sony Music - 19439721082, CD)\CD3\06. Sam Smith - Lay Me Down.wav
Pre-gap length 0:00:01.57
Peak level 73.8 %
Extraction speed 6.5 X
Track quality 100.0 %
Test CRC 5D6F32DC
Copy CRC 5D6F32DC
Track not present in AccurateRip database
Copy OK
Track 7
Filename F:\EAC Rips\VA - Love-The Love Album (2020, Sony Music - 19439721082, CD)\CD3\07. Emeli Sande - Clown.wav
Pre-gap length 0:00:01.22
Peak level 89.1 %
Extraction speed 6.7 X
Track quality 100.0 %
Test CRC EF088CA7
Copy CRC EF088CA7
Track not present in AccurateRip database
Copy OK
Track 8
Filename F:\EAC Rips\VA - Love-The Love Album (2020, Sony Music - 19439721082, CD)\CD3\08. Ellie Goulding - Love Me Like You Do.wav
Pre-gap length 0:00:01.48
Peak level 78.3 %
Extraction speed 6.4 X
Track quality 99.9 %
Test CRC 514DDCA0
Copy CRC 514DDCA0
Track not present in AccurateRip database
Copy OK
Track 9
Filename F:\EAC Rips\VA - Love-The Love Album (2020, Sony Music - 19439721082, CD)\CD3\09. Ariana Grande - No Tears Left To Cry.wav
Pre-gap length 0:00:01.90
Peak level 74.9 %
Extraction speed 7.2 X
Track quality 100.0 %
Test CRC 38E9C5E8
Copy CRC 38E9C5E8
Track not present in AccurateRip database
Copy OK
Track 10
Filename F:\EAC Rips\VA - Love-The Love Album (2020, Sony Music - 19439721082, CD)\CD3\10. Destiny's Child - Emotion.wav
Pre-gap length 0:00:01.74
Peak level 70.7 %
Extraction speed 7.6 X
Track quality 100.0 %
Test CRC CB63E5C5
Copy CRC CB63E5C5
Track not present in AccurateRip database
Copy OK
Track 11
Filename F:\EAC Rips\VA - Love-The Love Album (2020, Sony Music - 19439721082, CD)\CD3\11. Christina Aguilera - Beautiful.wav
Pre-gap length 0:00:01.78
Peak level 68.3 %
Extraction speed 7.8 X
Track quality 100.0 %
Test CRC EA96E30A
Copy CRC EA96E30A
Track not present in AccurateRip database
Copy OK
Track 12
Filename F:\EAC Rips\VA - Love-The Love Album (2020, Sony Music - 19439721082, CD)\CD3\12. Britney Spears - Everytime.wav
Pre-gap length 0:00:02.78
Peak level 88.2 %
Extraction speed 8.0 X
Track quality 100.0 %
Test CRC B672E79C
Copy CRC B672E79C
Track not present in AccurateRip database
Copy OK
Track 13
Filename F:\EAC Rips\VA - Love-The Love Album (2020, Sony Music - 19439721082, CD)\CD3\13. Kelly Clarkson - Because Of You.wav
Pre-gap length 0:00:01.74
Peak level 83.3 %
Extraction speed 8.1 X
Track quality 100.0 %
Test CRC CC00FA83
Copy CRC CC00FA83
Track not present in AccurateRip database
Copy OK
Track 14
Filename F:\EAC Rips\VA - Love-The Love Album (2020, Sony Music - 19439721082, CD)\CD3\14. Girls Aloud - I'll Stand By You.wav
Pre-gap length 0:00:01.69
Peak level 73.0 %
Extraction speed 8.4 X
Track quality 100.0 %
Test CRC 37D34A47
Copy CRC 37D34A47
Track not present in AccurateRip database
Copy OK
Track 15
Filename F:\EAC Rips\VA - Love-The Love Album (2020, Sony Music - 19439721082, CD)\CD3\15. Sugababes - Too Lost In You.wav
Pre-gap length 0:00:01.78
Peak level 69.5 %
Extraction speed 8.6 X
Track quality 100.0 %
Test CRC 73B49C2D
Copy CRC 73B49C2D
Track not present in AccurateRip database
Copy OK
Track 16
Filename F:\EAC Rips\VA - Love-The Love Album (2020, Sony Music - 19439721082, CD)\CD3\16. James Morrison & Nelly Furtado - Broken Strings.wav
Pre-gap length 0:00:00.80
Peak level 67.6 %
Extraction speed 9.0 X
Track quality 100.0 %
Test CRC F8EA99AE
Copy CRC F8EA99AE
Track not present in AccurateRip database
Copy OK
Track 17
Filename F:\EAC Rips\VA - Love-The Love Album (2020, Sony Music - 19439721082, CD)\CD3\17. Shakira - Underneath Your Clothes.wav
Pre-gap length 0:00:02.00
Peak level 80.5 %
Extraction speed 8.9 X
Track quality 100.0 %
Test CRC 15B65199
Copy CRC 15B65199
Track not present in AccurateRip database
Copy OK
Track 18
Filename F:\EAC Rips\VA - Love-The Love Album (2020, Sony Music - 19439721082, CD)\CD3\18. Jennifer Lopez - Baby I Love U!.wav
Pre-gap length 0:00:02.02
Peak level 88.0 %
Extraction speed 8.4 X
Track quality 99.9 %
Test CRC DED5C642
Copy CRC DED5C642
Track not present in AccurateRip database
Copy OK
Track 19
Filename F:\EAC Rips\VA - Love-The Love Album (2020, Sony Music - 19439721082, CD)\CD3\19. Toni Braxton - Un-Break My Heart.wav
Pre-gap length 0:00:01.96
Peak level 82.2 %
Extraction speed 9.6 X
Track quality 100.0 %
Test CRC BF1D7C67
Copy CRC BF1D7C67
Track not present in AccurateRip database
Copy OK
Track 20
Filename F:\EAC Rips\VA - Love-The Love Album (2020, Sony Music - 19439721082, CD)\CD3\20. Fugees - Killing Me Softly With His Song.wav
Pre-gap length 0:00:02.37
Peak level 97.7 %
Extraction speed 9.7 X
Track quality 100.0 %
Test CRC 9D310FB6
Copy CRC 9D310FB6
Track not present in AccurateRip database
Copy OK
None of the tracks are present in the AccurateRip database
No errors occurred
End of status report
---- AcoustID Plugin V1.2.0
Total fingerprints: 20
---- CUETools DB Plugin V2.1.6
[CTDB TOCID: vK9cHCFsPl0Cm9wgU083epaNh3M-] found
Submit result: vK9cHCFsPl0Cm9wgU083epaNh3M- has been confirmed
Track | CTDB Status
1 | (3/3) Accurately ripped
2 | (3/3) Accurately ripped
3 | (3/3) Accurately ripped
4 | (3/3) Accurately ripped
5 | (3/3) Accurately ripped
6 | (3/3) Accurately ripped
7 | (3/3) Accurately ripped
8 | (3/3) Accurately ripped
9 | (3/3) Accurately ripped
10 | (3/3) Accurately ripped
11 | (3/3) Accurately ripped
12 | (3/3) Accurately ripped
13 | (3/3) Accurately ripped
14 | (3/3) Accurately ripped
15 | (3/3) Accurately ripped
16 | (3/3) Accurately ripped
17 | (3/3) Accurately ripped
18 | (3/3) Accurately ripped
19 | (3/3) Accurately ripped
20 | (3/3) Accurately ripped
==== Log checksum 0A1F1CB67C4F9585B6765FCC87B8C209BF186391484F73081CFBE04403C7130A ====

Cue Sheet (.cue&#41;&#58;

REM DATE 2020
REM DISCID 20127A14
REM COMMENT "ExactAudioCopy v1.5"
PERFORMER "Various Artists"
TITLE "Love-The Love Album"
REM COMPOSER ""
FILE "01. George Ezra - Hold Me Girl.wav" WAVE
TRACK 01 AUDIO
TITLE "Hold Me Girl"
PERFORMER "George Ezra"
REM COMPOSER ""
INDEX 01 00:00:00
TRACK 02 AUDIO
TITLE "Lost In Japan"
PERFORMER "Shawn Mendes"
REM COMPOSER ""
INDEX 00 03:29:38
FILE "02. Shawn Mendes - Lost In Japan.wav" WAVE
INDEX 01 00:00:00
TRACK 03 AUDIO
TITLE "You & I"
PERFORMER "One Direction"
REM COMPOSER ""
INDEX 00 03:18:39
FILE "03. One Direction - You & I.wav" WAVE
INDEX 01 00:00:00
TRACK 04 AUDIO
TITLE "Say You Won't Let Go"
PERFORMER "James Arthur"
REM COMPOSER ""
INDEX 00 03:48:52
FILE "04. James Arthur - Say You Won't Let Go.wav" WAVE
INDEX 01 00:00:00
TRACK 05 AUDIO
TITLE "All Of Me"
PERFORMER "John Legend"
REM COMPOSER ""
INDEX 00 03:28:04
FILE "05. John Legend - All Of Me.wav" WAVE
INDEX 01 00:00:00
TRACK 06 AUDIO
TITLE "Lay Me Down"
PERFORMER "Sam Smith"
REM COMPOSER ""
INDEX 00 04:29:31
FILE "06. Sam Smith - Lay Me Down.wav" WAVE
INDEX 01 00:00:00
TRACK 07 AUDIO
TITLE "Clown"
PERFORMER "Emeli Sande"
REM COMPOSER ""
INDEX 00 04:08:14
FILE "07. Emeli Sande - Clown.wav" WAVE
INDEX 01 00:00:00
TRACK 08 AUDIO
TITLE "Love Me Like You Do"
PERFORMER "Ellie Goulding"
REM COMPOSER ""
INDEX 00 03:38:11
FILE "08. Ellie Goulding - Love Me Like You Do.wav" WAVE
INDEX 01 00:00:00
TRACK 09 AUDIO
TITLE "No Tears Left To Cry"
PERFORMER "Ariana Grande"
REM COMPOSER ""
INDEX 00 04:09:07
FILE "09. Ariana Grande - No Tears Left To Cry.wav" WAVE
INDEX 01 00:00:00
TRACK 10 AUDIO
TITLE "Emotion"
PERFORMER "Destiny's Child"
REM COMPOSER ""
INDEX 00 03:24:04
FILE "10. Destiny's Child - Emotion.wav" WAVE
INDEX 01 00:00:00
TRACK 11 AUDIO
TITLE "Beautiful"
PERFORMER "Christina Aguilera"
REM COMPOSER ""
INDEX 00 03:55:04
FILE "11. Christina Aguilera - Beautiful.wav" WAVE
INDEX 01 00:00:00
TRACK 12 AUDIO
TITLE "Everytime"
PERFORMER "Britney Spears"
REM COMPOSER ""
INDEX 00 03:58:49
FILE "12. Britney Spears - Everytime.wav" WAVE
INDEX 01 00:00:00
TRACK 13 AUDIO
TITLE "Because Of You"
PERFORMER "Kelly Clarkson"
REM COMPOSER ""
INDEX 00 03:46:54
FILE "13. Kelly Clarkson - Because Of You.wav" WAVE
INDEX 01 00:00:00
TRACK 14 AUDIO
TITLE "I'll Stand By You"
PERFORMER "Girls Aloud"
REM COMPOSER ""
INDEX 00 03:38:36
FILE "14. Girls Aloud - I'll Stand By You.wav" WAVE
INDEX 01 00:00:00
TRACK 15 AUDIO
TITLE "Too Lost In You"
PERFORMER "Sugababes"
REM COMPOSER ""
INDEX 00 03:42:08
FILE "15. Sugababes - Too Lost In You.wav" WAVE
INDEX 01 00:00:00
TRACK 16 AUDIO
TITLE "Broken Strings"
PERFORMER "James Morrison & Nelly Furtado"
REM COMPOSER ""
INDEX 00 03:56:27
FILE "16. James Morrison & Nelly Furtado - Broken Strings.wav" WAVE
INDEX 01 00:00:00
TRACK 17 AUDIO
TITLE "Underneath Your Clothes"
PERFORMER "Shakira"
REM COMPOSER ""
INDEX 00 04:10:31
FILE "17. Shakira - Underneath Your Clothes.wav" WAVE
INDEX 01 00:00:00
TRACK 18 AUDIO
TITLE "Baby I Love U!"
PERFORMER "Jennifer Lopez"
REM COMPOSER ""
INDEX 00 03:40:10
FILE "18. Jennifer Lopez - Baby I Love U!.wav" WAVE
INDEX 01 00:00:00
TRACK 19 AUDIO
TITLE "Un-Break My Heart"
PERFORMER "Toni Braxton"
REM COMPOSER ""
INDEX 00 04:26:69
FILE "19. Toni Braxton - Un-Break My Heart.wav" WAVE
INDEX 01 00:00:00
TRACK 20 AUDIO
TITLE "Killing Me Softly With His Song"
PERFORMER "Fugees"
REM COMPOSER ""
INDEX 00 04:22:56
FILE "20. Fugees - Killing Me Softly With His Song.wav" WAVE
INDEX 01 00:00:00

CD4

Трeклиcт:
01. Robbie Williams - Angels (4:26)
02. The Righteous Brothers - Unchained Melody (3:36)
03. Wet Wet Wet - Love Is All Around (3:58)
04. Westlife - My Love (3:51)
05. Justin Timberlake - Cry Me A River (4:50)
06. Ronan Keating - If Tomorrow Never Comes (3:34)
07. Richard Marx - Now And Forever (3:33)
08. Natalie Imbruglia - Torn (4:03)
09. Dido - Here With Me (4:15)
10. Annie Lennox - Why (4:54)
11. Dina Carroll - Don't Be A Stranger (4:44)
12. Beverley Craven - Promise Me (3:35)
13. Will Young - All Time Love (3:49)
14. Texas - Say What You Want (3:50)
15. Train - Drops Of Jupiter (4:19)
16. Dr. Hook - A Little Bit More (2:54)
17. Kenny Rogers - Lady (3:53)
18. Shania Twain - You're Still The One (3:17)
19. Crystal Gayle - Talking In Your Sleep (2:55)
20. Dolly Parton - I Will Always Love You (2:54)
Продoлжитeльность - 01:17:11

Отчёт ЕАС&#58;

Exact Audio Copy V1.5 from 20. February 2020
EAC extraction logfile from 20. June 2020, 21:28
Various Artists / Love-The Love Album
Used drive : TSSTcorpCD/DVDW SH-S182D Adapter: 1 ID: 1
Read mode : Secure
Utilize accurate stream : Yes
Defeat audio cache : Yes
Make use of C2 pointers : No
Read offset correction : 6
Overread into Lead-In and Lead-Out : No
Fill up missing offset samples with silence : Yes
Delete leading and trailing silent blocks : No
Null samples used in CRC calculations : Yes
Used interface : Native Win32 interface for Win NT & 2000
Gap handling : Appended to previous track
Used output format : User Defined Encoder
Selected bitrate : 896 kBit/s
Quality : High
Add ID3 tag : No
Command line compressor : C:\Program Files (x86)\Exact Audio Copy\FLAC\FLAC.EXE
Additional command line options : -6 -V -T "ARTIST=%artist%" -T "TITLE=%title%" -T "ALBUM=%albumtitle%" -T "DATE=%year%" -T "TRACKNUMBER=%tracknr%" -T "GENRE=%genre%" -T "COMMENT=%comment%" -T "BAND=%albuminterpret%" -T "ALBUMARTIST=%albuminterpret%" -T "COMPOSER=%composer%" %haslyrics%--tag-from-file=LYRICS="%lyricsfile%"%haslyrics% -T "DISCNUMBER=%cdnumber%" -T "TOTALDISCS=%totalcds%" -T "TOTALTRACKS=%numtracks%" %hascover%--picture="%coverfile%"%hascover% %source% -o %dest%
TOC of the extracted CD
Track | Start | Length | Start sector | End sector
---------------------------------------------------------
1 | 0:00.00 | 4:25.62 | 0 | 19936
2 | 4:25.62 | 3:36.07 | 19937 | 36143
3 | 8:01.69 | 3:58.20 | 36144 | 54013
4 | 12:00.14 | 3:51.29 | 54014 | 71367
5 | 15:51.43 | 4:49.67 | 71368 | 93109
6 | 20:41.35 | 3:33.64 | 93110 | 109148
7 | 24:15.24 | 3:32.45 | 109149 | 125093
8 | 27:47.69 | 4:02.56 | 125094 | 143299
9 | 31:50.50 | 4:14.63 | 143300 | 162412
10 | 36:05.38 | 4:54.35 | 162413 | 184497
11 | 40:59.73 | 4:43.58 | 184498 | 205780
12 | 45:43.56 | 3:34.74 | 205781 | 221904
13 | 49:18.55 | 3:49.23 | 221905 | 239102
14 | 53:08.03 | 3:50.33 | 239103 | 256385
15 | 56:58.36 | 4:19.32 | 256386 | 275842
16 | 61:17.68 | 2:54.14 | 275843 | 288906
17 | 64:12.07 | 3:52.66 | 288907 | 306372
18 | 68:04.73 | 3:17.36 | 306373 | 321183
19 | 71:22.34 | 2:54.60 | 321184 | 334293
20 | 74:17.19 | 2:53.57 | 334294 | 347325
Track 1
Filename F:\EAC Rips\VA - Love-The Love Album (2020, Sony Music - 19439721082, CD)\CD4\01. Robbie Williams - Angels.wav
Pre-gap length 0:00:02.00
Peak level 74.2 %
Extraction speed 5.0 X
Track quality 100.0 %
Test CRC 5B2C7EC7
Copy CRC 5B2C7EC7
Track not present in AccurateRip database
Copy OK
Track 2
Filename F:\EAC Rips\VA - Love-The Love Album (2020, Sony Music - 19439721082, CD)\CD4\02. The Righteous Brothers - Unchained Melody.wav
Pre-gap length 0:00:01.68
Peak level 100.0 %
Extraction speed 4.6 X
Track quality 99.9 %
Test CRC 62BBEC4D
Copy CRC 62BBEC4D
Track not present in AccurateRip database
Copy OK
Track 3
Filename F:\EAC Rips\VA - Love-The Love Album (2020, Sony Music - 19439721082, CD)\CD4\03. Wet Wet Wet - Love Is All Around.wav
Pre-gap length 0:00:01.34
Peak level 75.5 %
Extraction speed 5.5 X
Track quality 100.0 %
Test CRC 2412CD68
Copy CRC 2412CD68
Track not present in AccurateRip database
Copy OK
Track 4
Filename F:\EAC Rips\VA - Love-The Love Album (2020, Sony Music - 19439721082, CD)\CD4\04. Westlife - My Love.wav
Pre-gap length 0:00:00.97
Peak level 78.5 %
Extraction speed 5.1 X
Track quality 99.9 %
Test CRC 83C99D47
Copy CRC 83C99D47
Track not present in AccurateRip database
Copy OK
Track 5
Filename F:\EAC Rips\VA - Love-The Love Album (2020, Sony Music - 19439721082, CD)\CD4\05. Justin Timberlake - Cry Me A River.wav
Pre-gap length 0:00:01.09
Peak level 70.7 %
Extraction speed 6.5 X
Track quality 100.0 %
Test CRC A3CED083
Copy CRC A3CED083
Track not present in AccurateRip database
Copy OK
Track 6
Filename F:\EAC Rips\VA - Love-The Love Album (2020, Sony Music - 19439721082, CD)\CD4\06. Ronan Keating - If Tomorrow Never Comes.wav
Pre-gap length 0:00:01.76
Peak level 75.8 %
Extraction speed 6.5 X
Track quality 100.0 %
Test CRC 8023D7E1
Copy CRC 8023D7E1
Track not present in AccurateRip database
Copy OK
Track 7
Filename F:\EAC Rips\VA - Love-The Love Album (2020, Sony Music - 19439721082, CD)\CD4\07. Richard Marx - Now And Forever.wav
Pre-gap length 0:00:01.74
Peak level 83.4 %
Extraction speed 6.8 X
Track quality 100.0 %
Test CRC 0A3C11DE
Copy CRC 0A3C11DE
Track not present in AccurateRip database
Copy OK
Track 8
Filename F:\EAC Rips\VA - Love-The Love Album (2020, Sony Music - 19439721082, CD)\CD4\08. Natalie Imbruglia - Torn.wav
Pre-gap length 0:00:00.97
Peak level 54.8 %
Extraction speed 7.2 X
Track quality 100.0 %
Test CRC 45A927C5
Copy CRC 45A927C5
Track not present in AccurateRip database
Copy OK
Track 9
Filename F:\EAC Rips\VA - Love-The Love Album (2020, Sony Music - 19439721082, CD)\CD4\09. Dido - Here With Me.wav
Pre-gap length 0:00:00.44
Peak level 81.7 %
Extraction speed 7.5 X
Track quality 100.0 %
Test CRC 18E76373
Copy CRC 18E76373
Track not present in AccurateRip database
Copy OK
Track 10
Filename F:\EAC Rips\VA - Love-The Love Album (2020, Sony Music - 19439721082, CD)\CD4\10. Annie Lennox - Why.wav
Pre-gap length 0:00:01.36
Peak level 100.0 %
Extraction speed 7.1 X
Track quality 99.9 %
Test CRC 3BFFA6D3
Copy CRC 3BFFA6D3
Track not present in AccurateRip database
Copy OK
Track 11
Filename F:\EAC Rips\VA - Love-The Love Album (2020, Sony Music - 19439721082, CD)\CD4\11. Dina Carroll - Don't Be A Stranger.wav
Pre-gap length 0:00:01.37
Peak level 100.0 %
Extraction speed 8.2 X
Track quality 100.0 %
Test CRC F2D28776
Copy CRC F2D28776
Track not present in AccurateRip database
Copy OK
Track 12
Filename F:\EAC Rips\VA - Love-The Love Album (2020, Sony Music - 19439721082, CD)\CD4\12. Beverley Craven - Promise Me.wav
Pre-gap length 0:00:01.96
Peak level 83.3 %
Extraction speed 8.1 X
Track quality 100.0 %
Test CRC 5758F08F
Copy CRC 5758F08F
Track not present in AccurateRip database
Copy OK
Track 13
Filename F:\EAC Rips\VA - Love-The Love Album (2020, Sony Music - 19439721082, CD)\CD4\13. Will Young - All Time Love.wav
Pre-gap length 0:00:01.45
Peak level 77.6 %
Extraction speed 8.4 X
Track quality 100.0 %
Test CRC 2CA6F7E9
Copy CRC 2CA6F7E9
Track not present in AccurateRip database
Copy OK
Track 14
Filename F:\EAC Rips\VA - Love-The Love Album (2020, Sony Music - 19439721082, CD)\CD4\14. Texas - Say What You Want.wav
Pre-gap length 0:00:00.90
Peak level 71.6 %
Extraction speed 8.5 X
Track quality 100.0 %
Test CRC 927E0960
Copy CRC 927E0960
Track not present in AccurateRip database
Copy OK
Track 15
Filename F:\EAC Rips\VA - Love-The Love Album (2020, Sony Music - 19439721082, CD)\CD4\15. Train - Drops Of Jupiter.wav
Pre-gap length 0:00:00.70
Peak level 80.3 %
Extraction speed 8.9 X
Track quality 100.0 %
Test CRC 1F4B6525
Copy CRC 1F4B6525
Track not present in AccurateRip database
Copy OK
Track 16
Filename F:\EAC Rips\VA - Love-The Love Album (2020, Sony Music - 19439721082, CD)\CD4\16. Dr. Hook - A Little Bit More.wav
Pre-gap length 0:00:00.78
Peak level 100.0 %
Extraction speed 8.5 X
Track quality 100.0 %
Test CRC EB326600
Copy CRC EB326600
Track not present in AccurateRip database
Copy OK
Track 17
Filename F:\EAC Rips\VA - Love-The Love Album (2020, Sony Music - 19439721082, CD)\CD4\17. Kenny Rogers - Lady.wav
Pre-gap length 0:00:00.89
Peak level 70.7 %
Extraction speed 9.1 X
Track quality 100.0 %
Test CRC C08320EA
Copy CRC C08320EA
Track not present in AccurateRip database
Copy OK
Track 18
Filename F:\EAC Rips\VA - Love-The Love Album (2020, Sony Music - 19439721082, CD)\CD4\18. Shania Twain - You're Still The One.wav
Pre-gap length 0:00:01.58
Peak level 78.9 %
Extraction speed 9.1 X
Track quality 100.0 %
Test CRC 4D5AD278
Copy CRC 4D5AD278
Track not present in AccurateRip database
Copy OK
Track 19
Filename F:\EAC Rips\VA - Love-The Love Album (2020, Sony Music - 19439721082, CD)\CD4\19. Crystal Gayle - Talking In Your Sleep.wav
Pre-gap length 0:00:01.64
Peak level 72.3 %
Extraction speed 9.0 X
Track quality 100.0 %
Test CRC 347A399C
Copy CRC 347A399C
Track not present in AccurateRip database
Copy OK
Track 20
Filename F:\EAC Rips\VA - Love-The Love Album (2020, Sony Music - 19439721082, CD)\CD4\20. Dolly Parton - I Will Always Love You.wav
Pre-gap length 0:00:02.50
Peak level 83.1 %
Extraction speed 9.1 X
Track quality 100.0 %
Test CRC 757C75CF
Copy CRC 757C75CF
Track not present in AccurateRip database
Copy OK
None of the tracks are present in the AccurateRip database
No errors occurred
End of status report
---- AcoustID Plugin V1.2.0
Total fingerprints: 20
---- CUETools DB Plugin V2.1.6
[CTDB TOCID: zuHclT6GLRc0Mdk2WmSYOXG_lTM-] found
Submit result: zuHclT6GLRc0Mdk2WmSYOXG_lTM- has been confirmed
Track | CTDB Status
1 | (3/3) Accurately ripped
2 | (3/3) Accurately ripped
3 | (3/3) Accurately ripped
4 | (3/3) Accurately ripped
5 | (3/3) Accurately ripped
6 | (3/3) Accurately ripped
7 | (3/3) Accurately ripped
8 | (3/3) Accurately ripped
9 | (3/3) Accurately ripped
10 | (3/3) Accurately ripped
11 | (3/3) Accurately ripped
12 | (3/3) Accurately ripped
13 | (3/3) Accurately ripped
14 | (3/3) Accurately ripped
15 | (3/3) Accurately ripped
16 | (3/3) Accurately ripped
17 | (2/3) Accurately ripped
18 | (3/3) Accurately ripped
19 | (3/3) Accurately ripped
20 | (3/3) Accurately ripped
==== Log checksum A16640523920BFDF227324D9F3094AD1CD0C8F12048F4DA17F899A2667164825 ====

Cue Sheet (.cue&#41;&#58;

REM DATE 2020
REM DISCID 38121714
REM COMMENT "ExactAudioCopy v1.5"
PERFORMER "Various Artists"
TITLE "Love-The Love Album"
REM COMPOSER ""
FILE "01. Robbie Williams - Angels.wav" WAVE
TRACK 01 AUDIO
TITLE "Angels"
PERFORMER "Robbie Williams"
REM COMPOSER ""
INDEX 01 00:00:00
TRACK 02 AUDIO
TITLE "Unchained Melody"
PERFORMER "The Righteous Brothers"
REM COMPOSER ""
INDEX 00 04:24:11
FILE "02. The Righteous Brothers - Unchained Melody.wav" WAVE
INDEX 01 00:00:00
TRACK 03 AUDIO
TITLE "Love Is All Around"
PERFORMER "Wet Wet Wet"
REM COMPOSER ""
INDEX 00 03:34:56
FILE "03. Wet Wet Wet - Love Is All Around.wav" WAVE
INDEX 01 00:00:00
TRACK 04 AUDIO
TITLE "My Love"
PERFORMER "Westlife"
REM COMPOSER ""
INDEX 00 03:57:22
FILE "04. Westlife - My Love.wav" WAVE
INDEX 01 00:00:00
TRACK 05 AUDIO
TITLE "Cry Me A River"
PERFORMER "Justin Timberlake"
REM COMPOSER ""
INDEX 00 03:50:22
FILE "05. Justin Timberlake - Cry Me A River.wav" WAVE
INDEX 01 00:00:00
TRACK 06 AUDIO
TITLE "If Tomorrow Never Comes"
PERFORMER "Ronan Keating"
REM COMPOSER ""
INDEX 00 04:48:10
FILE "06. Ronan Keating - If Tomorrow Never Comes.wav" WAVE
INDEX 01 00:00:00
TRACK 07 AUDIO
TITLE "Now And Forever"
PERFORMER "Richard Marx"
REM COMPOSER ""
INDEX 00 03:32:08
FILE "07. Richard Marx - Now And Forever.wav" WAVE
INDEX 01 00:00:00
TRACK 08 AUDIO
TITLE "Torn"
PERFORMER "Natalie Imbruglia"
REM COMPOSER ""
INDEX 00 03:31:47
FILE "08. Natalie Imbruglia - Torn.wav" WAVE
INDEX 01 00:00:00
TRACK 09 AUDIO
TITLE "Here With Me"
PERFORMER "Dido"
REM COMPOSER ""
INDEX 00 04:02:23
FILE "09. Dido - Here With Me.wav" WAVE
INDEX 01 00:00:00
TRACK 10 AUDIO
TITLE "Why"
PERFORMER "Annie Lennox"
REM COMPOSER ""
INDEX 00 04:13:36
FILE "10. Annie Lennox - Why.wav" WAVE
INDEX 01 00:00:00
TRACK 11 AUDIO
TITLE "Don't Be A Stranger"
PERFORMER "Dina Carroll"
REM COMPOSER ""
INDEX 00 04:53:07
FILE "11. Dina Carroll - Don't Be A Stranger.wav" WAVE
INDEX 01 00:00:00
TRACK 12 AUDIO
TITLE "Promise Me"
PERFORMER "Beverley Craven"
REM COMPOSER ""
INDEX 00 04:41:61
FILE "12. Beverley Craven - Promise Me.wav" WAVE
INDEX 01 00:00:00
TRACK 13 AUDIO
TITLE "All Time Love"
PERFORMER "Will Young"
REM COMPOSER ""
INDEX 00 03:33:40
FILE "13. Will Young - All Time Love.wav" WAVE
INDEX 01 00:00:00
TRACK 14 AUDIO
TITLE "Say What You Want"
PERFORMER "Texas"
REM COMPOSER ""
INDEX 00 03:48:30
FILE "14. Texas - Say What You Want.wav" WAVE
INDEX 01 00:00:00
TRACK 15 AUDIO
TITLE "Drops Of Jupiter"
PERFORMER "Train"
REM COMPOSER ""
INDEX 00 03:49:55
FILE "15. Train - Drops Of Jupiter.wav" WAVE
INDEX 01 00:00:00
TRACK 16 AUDIO
TITLE "A Little Bit More"
PERFORMER "Dr. Hook"
REM COMPOSER ""
INDEX 00 04:18:48
FILE "16. Dr. Hook - A Little Bit More.wav" WAVE
INDEX 01 00:00:00
TRACK 17 AUDIO
TITLE "Lady"
PERFORMER "Kenny Rogers"
REM COMPOSER ""
INDEX 00 02:53:22
FILE "17. Kenny Rogers - Lady.wav" WAVE
INDEX 01 00:00:00
TRACK 18 AUDIO
TITLE "You're Still The One"
PERFORMER "Shania Twain"
REM COMPOSER ""
INDEX 00 03:51:22
FILE "18. Shania Twain - You're Still The One.wav" WAVE
INDEX 01 00:00:00
TRACK 19 AUDIO
TITLE "Talking In Your Sleep"
PERFORMER "Crystal Gayle"
REM COMPOSER ""
INDEX 00 03:15:63
FILE "19. Crystal Gayle - Talking In Your Sleep.wav" WAVE
INDEX 01 00:00:00
TRACK 20 AUDIO
TITLE "I Will Always Love You"
PERFORMER "Dolly Parton"
REM COMPOSER ""
INDEX 00 02:52:22
FILE "20. Dolly Parton - I Will Always Love You.wav" WAVE
INDEX 01 00:00:00
--Релиз группа: Filmgrad.Ru ->
[filmgrad.ru].t149113.torrent 
Torrent: Registered [ 2020-06-21 19:49 ] · A0AB370864B70F202B95F3A2856421C1164BBD47

Download .torrent

Download

28 KB

Status: checked
Completed: 0 times
Size: 1.94 GB
Оценка:  5 (Голосов: 1)
Поблагодарили: 0  Спасибо
terms.php
[Profile] [PM]
Display posts:    
Reply to topic

Current time is: 07-Jul 12:51

All times are UTC + 3



You cannot post new topics in this forum
You cannot reply to topics in this forum
You cannot edit your posts in this forum
You cannot delete your posts in this forum
You cannot vote in polls in this forum
You cannot attach files in this forum
You can download files in this forum