Сила природы / Force of Nature (2020) BDRip 720p | HDRezka Studio

Reply to topic
DL-List and Torrent activity
Size:  5.59 GB   |    Registered:  19 days   |    Completed:  2 times
Seeders:  241  [  0 KB/s  ]   Leechers:  36  [  0 KB/s  ]   Show peers in full details
 
     
 
 
Author Message

dybrik13 ®

Gender: Male

Longevity: 1 year 5 months

Posts: 7120

Location: Киев

Post 21-Jun-2020 12:40

[Quote]

Сила природы / Force of Nature- Оригинальное название: Force of Nature
Год выхода: 2020
Жанр: драма, боевик
Режиссер: Майкл Полиш
В ролях: Мэл Гибсон, Кейт Босворт, Эмиль Хирш, Дэвид Зайас, Стефани Кайо, Тайлер Джон Олсон, Уильям Кэтлетт, Джаспер Полиш, Свен Теммел, Джеси Маккинни-Детектив полиции в отставке во время урагана вместе с остальными жильцами оказывается в ловушке в многоэтажном здании.
Там же группа опасных преступников планирует провернуть ограбление.
ПРИСУТСТВУЕТ НЕНОРМАТИВНАЯ ЛЕКСИКА
Страна: США
Студия: Emmett/Furla Films, FON Film Production, Force of Nature Film
Продолжительность: 01:31:06
Перевод: Профессиональный многоголосый, закадровый [HDRezka Studio]
ОТСУТСТВУЕТ ОЗВУЧКА НА ИСПАНСКУЮ РЕЧЬ - незначительные эпизоды
Кодек: H.264
Качество: BDRip 720p
Видео: AVC, 1280x536 (2.40:1), 23.976 fps ~ 7528 Kbps
Звук:
AC3, 48 KHz, 6 ch ~ 448 Kb/s (русский)
AC3, 48 KHz, 6 ch ~ 640 Kb/s (английский)
Субтитры: английские, испанские

MI:

General
Unique ID : 195730469262274984848650309140697430966 (0x9340513295CC2D429181B6E901B5BBB6)
Complete name : J:wotforce.of.nature.2020.720p.bluray.x264-yol0w.mkv
Format : Matroska
Format version : Version 4 / Version 2
File size : 5.59 GiB
Duration : 1h 31mn
Overall bit rate : 8 791 Kbps
Encoded date : UTC 2020-06-21 06:33:53
Writing application : mkvmerge v7.7.0 ('Six Voices') 32bit built on Feb 28 2015 23:23:00
Writing library : libebml v1.3.1 + libmatroska v1.4.2
_STATISTICS_WRITING_APP : mkvmerge v7.7.0 ('Six Voices') 32bit built on Feb 28 2015 23:23:00
_STATISTICS_WRITING_DATE_UTC : 2020-06-21 06:33:53
_STATISTICS_TAGS : BPS DURATION NUMBER_OF_FRAMES NUMBER_OF_BYTES
DURATION : 01:31:06.496000000
NUMBER_OF_FRAMES : 170828
NUMBER_OF_BYTES : 306123776
Video
ID : 1
Format : AVC
Format/Info : Advanced Video Codec
Format profile : High@L4.1
Format settings, CABAC : Yes
Format settings, ReFrames : 8 frames
Codec ID : V_MPEG4/ISO/AVC
Duration : 1h 31mn
Bit rate : 7 528 Kbps
Width : 1 280 pixels
Height : 536 pixels
Display aspect ratio : 2.40:1
Frame rate mode : Constant
Frame rate : 23.976 fps
Color space : YUV
Chroma subsampling : 4:2:0
Bit depth : 8 bits
Scan type : Progressive
Bits/(Pixel*Frame) : 0.458
Stream size : 4.79 GiB (86%)
Writing library : x264 core 160 r3007 235ce61
Encoding settings : cabac=1 / ref=8 / deblock=1:-3:-3 / analyse=0x3:0x133 / me=umh / subme=9 / psy=1 / psy_rd=1.00:0.00 / mixed_ref=1 / me_range=24 / chroma_me=1 / trellis=2 / 8x8dct=1 / cqm=0 / deadzone=21,11 / fast_pskip=0 / chroma_qp_offset=-2 / threads=17 / lookahead_threads=1 / sliced_threads=0 / nr=0 / decimate=1 / interlaced=0 / bluray_compat=0 / constrained_intra=0 / bframes=3 / b_pyramid=2 / b_adapt=2 / b_bias=0 / direct=3 / weightb=1 / open_gop=0 / weightp=2 / keyint=250 / keyint_min=23 / scenecut=40 / intra_refresh=0 / rc=crf / mbtree=0 / crf=17.4 / qcomp=0.60 / qpmin=0 / qpmax=69 / qpstep=4 / ip_ratio=1.40 / pb_ratio=1.30 / aq=3:0.80
Language : English
Default : Yes
Forced : No
Color range : Limited
Matrix coefficients : BT.709
Audio #1
ID : 2
Format : AC-3
Format/Info : Audio Coding 3
Mode extension : CM (complete main)
Format settings, Endianness : Big
Codec ID : A_AC3
Duration : 1h 31mn
Bit rate mode : Constant
Bit rate : 448 Kbps
Channel(s) : 6 channels
Channel positions : Front: L C R, Side: L R, LFE
Sampling rate : 48.0 KHz
Compression mode : Lossy
Delay relative to video : 30ms
Stream size : 292 MiB (5%)
Title : hdrezka 5.1
Language : Russian
Default : Yes
Forced : No
Audio #2
ID : 3
Format : AC-3
Format/Info : Audio Coding 3
Mode extension : CM (complete main)
Format settings, Endianness : Big
Codec ID : A_AC3
Duration : 1h 31mn
Bit rate mode : Constant
Bit rate : 640 Kbps
Channel(s) : 6 channels
Channel positions : Front: L C R, Side: L R, LFE
Sampling rate : 48.0 KHz
Compression mode : Lossy
Stream size : 417 MiB (7%)
Title : English
Language : English
Default : No
Forced : No
Text #1
ID : 4
Format : PGS
Muxing mode : zlib
Codec ID : S_HDMV/PGS
Codec ID/Info : Picture based subtitle format used on BDs/HD-DVDs
Language : English
Default : No
Forced : No
Text #2
ID : 5
Format : PGS
Muxing mode : zlib
Codec ID : S_HDMV/PGS
Codec ID/Info : Picture based subtitle format used on BDs/HD-DVDs
Language : Spanish
Default : No
Forced : No
Menu
00:00:00.000 : en:Chapter 01
00:06:31.474 : en:Chapter 02
00:13:17.130 : en:Chapter 03
00:16:04.672 : en:Chapter 04
00:21:07.975 : en:Chapter 05
00:26:09.568 : en:Chapter 06
00:31:58.375 : en:Chapter 07
00:37:10.395 : en:Chapter 08
00:43:02.121 : en:Chapter 09
00:49:38.559 : en:Chapter 10
00:56:44.735 : en:Chapter 11
01:00:58.905 : en:Chapter 12
01:07:58.283 : en:Chapter 13
01:12:43.150 : en:Chapter 14
01:17:51.584 : en:Chapter 15
01:24:53.255 : en:Chapter 16

Скриншоты

--Релиз группа: Filmgrad.Ru ->
[filmgrad.ru].t149095.torrent 
Torrent: Registered [ 2020-06-21 12:40 ] · 29200C335830F1AE6E7E7D63D3CD258BC8B7A197

Download .torrent

Download

29 KB

Status: checked
Completed: 2 times
Size: 5.59 GB
Оценка:  5 (Голосов: 1)
Поблагодарили: 0  Спасибо
terms.php
[Profile] [PM]
Display posts:    
Reply to topic

Current time is: 11-Jul 05:12

All times are UTC + 3



You cannot post new topics in this forum
You cannot reply to topics in this forum
You cannot edit your posts in this forum
You cannot delete your posts in this forum
You cannot vote in polls in this forum
You cannot attach files in this forum
You can download files in this forum