Потерянная пуля / Balle perdue / Lost Bullet (2020) WEB-DL [H.264/1080p-LQ]

Reply to topic
DL-List and Torrent activity
Size:  4.22 GB   |    Registered:  23 days   |    Completed:  0 times
Seeders:  22  [  0 KB/s  ]   Leechers:  28  [  0 KB/s  ]   Show peers in full details
 
     
 
 
Author Message

dybrik13 ®

Gender: Male

Longevity: 1 year 5 months

Posts: 7155

Location: Киев

Post 21-Jun-2020 10:18

[Quote]

Потерянная пуля / Balle perdue / Lost Bullet- Производство: Франция / Inoxy Films, Nolita TV, Versus Production
Жанр: Боевик, триллер, криминал
Режиссер: Гийом Пьерре
Продюсер: Rémi Leautier, Mathieu Ageron
Актеры: Альбан Ленуар, Николя Дювошель, Рамзи Бедиа, Стефи Сельма, Род Парадо, Себастьян Лаланн, Arthur Aspaturian, Патрик Медиони, Александр Филип, Стивен Скардиккьо-Одаренного механика обвиняют в убийстве, которого он не совершал.
Единственным доказательством его невиновности является пуля с места преступления, застрявшая в пропавшей машине.
Дата мировой премьеры: 19 июня 2020
Продолжительность: 01:33:06
Качество видео: WEB-DL
Перевод: Одноголосый любительский (Дмитрий Хихидок)
Субтитры: Русские (Full), английские, испанские, французские, немецкие, итальянские, португальские | Нетфликс
Видео: AVC/H.264, 1920x1080, ~5360 Kbps
Аудио 1: AC3, 6 ch, 640 Kbps - Русский (VO)
Аудио 2: AC3, 6 ch, 640 Kbps - Французский

MediaInfo:

General
Unique ID : 241709106549268199127118180338405873862 (0xB5D77B097B5CB3C9B0A28376EF1A18C6)
Complete name : Lost.Bullet.2020.WEB-DL.1080p.mkv
Format : Matroska
Format version : Version 4
File size : 4.22 GiB
Duration : 1 h 33 min
Overall bit rate mode : Variable
Overall bit rate : 6 488 kb/s
Encoded date : UTC 2020-06-20 23:02:33
Writing application : mkvmerge v7.1.0 ('Good Love') 64bit built on Jul 27 2014 13:06:55
Writing library : libebml v1.3.0 + libmatroska v1.4.1
Video
ID : 1
Format : AVC
Format/Info : Advanced Video Codec
Format profile : Main@L4
Format settings : CABAC / 3 Ref Frames
Format settings, CABAC : Yes
Format settings, Reference : 3 frames
Codec ID : V_MPEG4/ISO/AVC
Duration : 1 h 33 min
Bit rate mode : Variable
Bit rate : 5 360 kb/s
Maximum bit rate : 8 040 kb/s
Width : 1 920 pixels
Height : 1 080 pixels
Display aspect ratio : 16:9
Frame rate mode : Constant
Frame rate : 25.000 FPS
Color space : YUV
Chroma subsampling : 4:2:0
Bit depth : 8 bits
Scan type : Progressive
Bits/(Pixel*Frame) : 0.103
Stream size : 3.39 GiB (80%)
Writing library : x264 core 148 r2717 0d2410d
Encoding settings : cabac=1 / ref=3 / deblock=1:0:0 / analyse=0x1:0x111 / me=umh / subme=10 / psy=1 / psy_rd=1.00:0.00 / mixed_ref=1 / me_range=24 / chroma_me=1 / trellis=2 / 8x8dct=0 / cqm=0 / deadzone=21,11 / fast_pskip=1 / chroma_qp_offset=-2 / threads=8 / lookahead_threads=1 / sliced_threads=0 / nr=0 / decimate=1 / interlaced=0 / bluray_compat=0 / stitchable=1 / constrained_intra=0 / bframes=2 / b_pyramid=0 / b_adapt=2 / b_bias=0 / direct=3 / weightb=1 / open_gop=0 / weightp=2 / keyint=250 / keyint_min=25 / scenecut=0 / intra_refresh=0 / rc_lookahead=50 / rc=2pass / mbtree=1 / bitrate=5360 / ratetol=1.0 / qcomp=0.50 / qpmin=6 / qpmax=51 / qpstep=4 / cplxblur=20.0 / qblur=0.5 / vbv_maxrate=8040 / vbv_bufsize=10720 / nal_hrd=vbr / filler=0 / ip_ratio=1.40 / aq=1:1.00
Language : French
Default : Yes
Forced : No
Audio #1
ID : 2
Format : AC-3
Format/Info : Audio Coding 3
Commercial name : Dolby Digital
Codec ID : A_AC3
Duration : 1 h 33 min
Bit rate mode : Constant
Bit rate : 640 kb/s
Channel(s) : 6 channels
Channel layout : L R C LFE Ls Rs
Sampling rate : 48.0 kHz
Frame rate : 31.250 FPS (1536 SPF)
Compression mode : Lossy
Stream size : 426 MiB (10%)
Title : Хихидок
Language : Russian
Service kind : Complete Main
Default : Yes
Forced : No
Audio #2
ID : 3
Format : AC-3
Format/Info : Audio Coding 3
Commercial name : Dolby Digital
Codec ID : A_AC3
Duration : 1 h 33 min
Bit rate mode : Constant
Bit rate : 640 kb/s
Channel(s) : 6 channels
Channel layout : L R C LFE Ls Rs
Sampling rate : 48.0 kHz
Frame rate : 31.250 FPS (1536 SPF)
Compression mode : Lossy
Stream size : 426 MiB (10%)
Language : French
Service kind : Complete Main
Default : No
Forced : No
Text #1
ID : 4
Format : UTF-8
Codec ID : S_TEXT/UTF8
Codec ID/Info : UTF-8 Plain Text
Duration : 1 h 25 min
Bit rate : 44 b/s
Count of elements : 669
Stream size : 27.6 KiB (0%)
Title : Russian
Language : Russian
Default : No
Forced : No
Text #2
ID : 5
Format : UTF-8
Codec ID : S_TEXT/UTF8
Codec ID/Info : UTF-8 Plain Text
Duration : 1 h 25 min
Bit rate : 27 b/s
Count of elements : 668
Stream size : 17.3 KiB (0%)
Title : English
Language : English
Default : No
Forced : No
Text #3
ID : 6
Format : UTF-8
Codec ID : S_TEXT/UTF8
Codec ID/Info : UTF-8 Plain Text
Duration : 1 h 30 min
Bit rate : 48 b/s
Count of elements : 1069
Stream size : 32.1 KiB (0%)
Title : French
Language : French
Default : No
Forced : No
Text #4
ID : 7
Format : UTF-8
Codec ID : S_TEXT/UTF8
Codec ID/Info : UTF-8 Plain Text
Duration : 1 h 25 min
Bit rate : 30 b/s
Count of elements : 668
Stream size : 19.0 KiB (0%)
Title : German
Language : German
Default : No
Forced : No
Text #5
ID : 8
Format : UTF-8
Codec ID : S_TEXT/UTF8
Codec ID/Info : UTF-8 Plain Text
Duration : 1 h 25 min
Bit rate : 23 b/s
Count of elements : 654
Stream size : 14.8 KiB (0%)
Title : Spanish
Language : Spanish
Default : No
Forced : No
Text #6
ID : 9
Format : UTF-8
Codec ID : S_TEXT/UTF8
Codec ID/Info : UTF-8 Plain Text
Duration : 1 h 25 min
Bit rate : 24 b/s
Count of elements : 641
Stream size : 15.5 KiB (0%)
Title : Italian
Language : Italian
Default : No
Forced : No
Text #7
ID : 10
Format : UTF-8
Codec ID : S_TEXT/UTF8
Codec ID/Info : UTF-8 Plain Text
Duration : 1 h 25 min
Bit rate : 27 b/s
Count of elements : 668
Stream size : 17.3 KiB (0%)
Title : Portuguese
Language : Portuguese
Default : No
Forced : No
Скриншоты:

Дополнительные скриншоты:

--Релиз группа: Filmgrad.Ru ->
[filmgrad.ru].t149082.torrent 
Torrent: Registered [ 2020-06-21 10:18 ] · D324EAA98E90B061CEC9A56BB6A52287A1D93057

Download .torrent

Download

11 KB

Status: checked
Completed: 0 times
Size: 4.22 GB
Оценка:  5 (Голосов: 1)
Поблагодарили: 0  Спасибо
terms.php
[Profile] [PM]
Display posts:    
Reply to topic

Current time is: 15-Jul 09:09

All times are UTC + 3



You cannot post new topics in this forum
You cannot reply to topics in this forum
You cannot edit your posts in this forum
You cannot delete your posts in this forum
You cannot vote in polls in this forum
You cannot attach files in this forum
You can download files in this forum