Герой по вызову (2019) SATRip (сезон 1, серии 1-10 из 10)

Reply to topic
DL-List and Torrent activity
Size:  5.93 GB   |    Registered:  22 days   |    Completed:  1 time
Seeders:  177  [  0 KB/s  ]   Leechers:  11  [  0 KB/s  ]   Show peers in full details
 
     
 
 
Author Message

dybrik13 ®

Gender: Male

Longevity: 1 year 5 months

Posts: 7120

Location: Киев

Post 19-Jun-2020 18:41

[Quote]

Герой по вызову- Производство: Россия | ООО «РИМ-Продакшн»
Жанр: Детектив, комедия
Режиссер: Анна Зайцева
Актеры: Евгений Миллер, Кристина Асмус, Николай Клямчук, Михаил Евланов, Марина Калецкая, Владимир Виноградов, Константин Тополага, Юрий Николаенко, Ирина Вербицкая, Константин Соловьев и др.-Иван Лутошин — врач-невролог по профессии и неудачник по жизни. Он узнает, что у него неоперабельная опухоль мозга и ему осталось жить полгода. Медик уверен, что самое лучшее — это самому побыстрее уйти из жизни. Напившись, он выходит на скоростную трассу перед подъезжающим авто, но водитель успевает вырулить с дороги, и Лутошин остается жив. За рулем автомобиля — оперуполномоченный полиции Туманов. Узнав, что к чему, он предлагает неврологу поучаствовать в смертельно опасных операциях стражей порядка. Мол, если убьют, то хотя бы не напрасно.
Дата российской премьеры: 15 июня 2020
Продолжительность: ~00:47:00 серия
Качество видео: SATRip
Видео: XviD, 720х400, ~1650 Kbps
Аудио: MP3, 2 ch, 192 Kbps

Mediainfo:

General
Complete name : Geroi.po.vyzovu.2020.XviD.SATRip.25Kuzmich\Geroi.po.vyzovu.e04.XviD.SATRip.25Kuzmich.avi
Format : AVI
Format/Info : Audio Video Interleave
File size : 606 MiB
Duration : 45 min 44 s
Overall bit rate : 1 852 kb/s
Writing application : VirtualDubMod 1.5.10.3 (build 2550/release)
Writing library : VirtualDubMod build 2550/release
Video
ID : 0
Format : MPEG-4 Visual
Format profile : Advanced Simple@L5
Format settings : BVOP1
Format settings, BVOP : 1
Format settings, QPel : No
Format settings, GMC : No warppoints
Format settings, Matrix : Default (MPEG)
Codec ID : XVID
Codec ID/Hint : XviD
Duration : 45 min 44 s
Bit rate : 1 650 kb/s
Width : 720 pixels
Height : 400 pixels
Display aspect ratio : 16:9
Frame rate : 25.000 FPS
Color space : YUV
Chroma subsampling : 4:2:0
Bit depth : 8 bits
Scan type : Progressive
Compression mode : Lossy
Bits/(Pixel*Frame) : 0.229
Stream size : 540 MiB (89%)
Writing library : XviD 73
Audio
ID : 1
Format : MPEG Audio
Format version : Version 1
Format profile : Layer 3
Format settings : Joint stereo / MS Stereo
Codec ID : 55
Codec ID/Hint : MP3
Duration : 45 min 44 s
Bit rate mode : Constant
Bit rate : 192 kb/s
Channel(s) : 2 channels
Sampling rate : 48.0 kHz
Frame rate : 41.667 FPS (1152 SPF)
Compression mode : Lossy
Stream size : 62.8 MiB (10%)
Alignment : Aligned on interleaves
Interleave, duration : 40 ms (1.00 video frame)
Interleave, preload duratio : 504 ms
Writing library : LAME3.99r
Encoding settings : -m j -V 4 -q 2 -lowpass 18.6 -b 192
Скриншоты:
--Релиз группа: Filmgrad.Ru ->
[filmgrad.ru].t149069.torrent 
Torrent: Registered [ 2020-06-19 18:41 ] · 741006E8C9A7FE82B960FDCE8006B6BB39ADA9C0

Download .torrent

Download

31 KB

Status: checked
Completed: 1 times
Size: 5.93 GB
Оценка:  5 (Голосов: 1)
Поблагодарили: 0  Спасибо
terms.php
[Profile] [PM]
Display posts:    
Reply to topic

Current time is: 12-Jul 07:48

All times are UTC + 3



You cannot post new topics in this forum
You cannot reply to topics in this forum
You cannot edit your posts in this forum
You cannot delete your posts in this forum
You cannot vote in polls in this forum
You cannot attach files in this forum
You can download files in this forum