NG: Земля под рентгеном / X-Ray Earth (2020) HDTVRip [H.264/720p-LQ] (серии 1-3 из 3)

Reply to topic
DL-List and Torrent activity
Size:  3.98 GB   |    Registered:  1 month 16 days   |    Completed:  0 times

Seeder not seen: Never

Leechers:  10  [  0 KB/s  ]   Show peers in full details
 
     
 
 
Author Message

dybrik13 ®

Gender: Male

Longevity: 1 year 5 months

Posts: 7120

Location: Киев

Post 26-May-2020 08:10

[Quote]

Земля под рентгеном / X-Ray Earth- Производство: Великобритания, BLINK FILMS for National Geographic
Жанр: Документальный, Научно-популярный
Режиссер: Дэн Чамберс-Под нашими ногами, под триллионами тонн камня, скрываются удивительные и смертельные секреты. Землетрясения, цунами, извержения вулканов - все это вызвано скрытыми силами глубоко внутри нашей планеты. Теперь, используя последние научные данные от датчиков и сканирования поверхности, мы можем сделать рентгеновские снимки Земли, чтобы выявить опасности, запертые внутри нашей планеты. Используя тысячи датчиков и современную информацию о сканировании поверхности, мы впервые можем создавать рентгеновские снимки глубинных недр нашей планеты.
Продолжительность: 3 х ~ 00:43:58
Качество видео: HDTVRip
Перевод: Одноголосый профессиональный (Студия Велес)
Субтитры: Отсутствуют
Видео: AVC/H.264, 1280х720, ~4000 Kbps
Аудио # 1: AC3, 2 ch, 192 Kbps | Русский - текст читал Александр Васильев
Аудио # 2: AC3, 2 ch, 128 Kbps | Английский

MediaInfo: (тех. данные всех серий идентичны)

Общее
Уникальный идентификатор : 251408405901670380273646230147510088287 (0xBD237F6A8E63EC52A352C2B04EA0B25F)
Полное имя : D:\Мультимедиа\Фильмы\Земля под рентгеном\01. Землятресение в Сиэтле_720p.mkv
Формат : Matroska
Версия формата : Version 4
Размер файла : 1,33 Гбайт
Продолжительность : 43 м. 58 с.
Общий поток : 4 322 Кбит/сек
Дата кодирования : UTC 2020-05-24 06:27:31
Программа кодирования : mkvmerge v6.6.0 ('The Edge Of The In Between') built on Dec 1 2013 17:55:00
Библиотека кодирования : libebml v1.3.0 + libmatroska v1.4.1
Видео
Идентификатор : 1
Формат : AVC
Формат/Информация : Advanced Video Codec
Профиль формата : High@L4.1
Настройки формата : CABAC / 8 Ref Frames
Параметр CABAC формата : Да
Параметр RefFrames формата : 8 кадров
Идентификатор кодека : V_MPEG4/ISO/AVC
Продолжительность : 43 м. 58 с.
Битрейт : 4 000 Кбит/сек
Ширина : 1 280 пикселей
Высота : 720 пикселей
Соотношение сторон : 16:9
Режим частоты кадров : Постоянный
Частота кадров : 25,000 кадров/сек
Цветовое пространство : YUV
Субдискретизация насыщенности : 4:2:0
Битовая глубина : 8 бит
Тип развёртки : Прогрессивная
Бит/(Пиксели*Кадры) : 0.174
Размер потока : 1,20 Гбайт (91%)
Библиотека кодирования : x264 core 159 r2991 1771b55
Настройки программы : cabac=1 / ref=8 / deblock=1:-3:-3 / analyse=0x3:0x133 / me=umh / subme=9 / psy=1 / psy_rd=1.00:0.00 / mixed_ref=1 / me_range=32 / chroma_me=1 / trellis=2 / 8x8dct=1 / cqm=0 / deadzone=21,11 / fast_pskip=1 / chroma_qp_offset=-2 / threads=12 / lookahead_threads=2 / sliced_threads=0 / nr=0 / decimate=0 / interlaced=0 / bluray_compat=0 / constrained_intra=0 / bframes=9 / b_pyramid=2 / b_adapt=2 / b_bias=0 / direct=3 / weightb=1 / open_gop=0 / weightp=2 / keyint=250 / keyint_min=25 / scenecut=40 / intra_refresh=0 / rc_lookahead=50 / rc=2pass / mbtree=1 / bitrate=4000 / ratetol=1.0 / qcomp=0.60 / qpmin=0 / qpmax=69 / qpstep=4 / cplxblur=20.0 / qblur=0.5 / ip_ratio=1.40 / aq=1:1.00
Язык : English
Default : Да
Forced : Нет
Duration_Source : General_Duration
Аудио #1
Идентификатор : 2
Формат : AC-3
Формат/Информация : Audio Coding 3
Коммерческое название : Dolby Digital
Идентификатор кодека : A_AC3
Продолжительность : 43 м. 58 с.
Вид битрейта : Постоянный
Битрейт : 192 Кбит/сек
Каналы : 2 канала
Channel layout : L R
Частота : 48,0 КГц
Частота кадров : 31,250 кадров/сек (1536 SPF)
Метод сжатия : С потерями
Размер потока : 60,4 Мбайт (4%)
Язык : Russian
Service kind : Complete Main
Default : Да
Forced : Да
Duration_Source : General_Duration
Аудио #2
Идентификатор : 3
Формат : AC-3
Формат/Информация : Audio Coding 3
Коммерческое название : Dolby Digital
Идентификатор кодека : A_AC3
Продолжительность : 43 м. 58 с.
Вид битрейта : Постоянный
Битрейт : 128 Кбит/сек
Каналы : 2 канала
Channel layout : L R
Частота : 48,0 КГц
Частота кадров : 31,250 кадров/сек (1536 SPF)
Метод сжатия : С потерями
Размер потока : 40,3 Мбайт (3%)
Язык : English
Service kind : Complete Main
Default : Нет
Forced : Нет
Duration_Source : General_Duration

Содержание:

01. Землетрясение в Сиэттле / Seattle Mega Quake
Рентгеновское обследование поверхности Земли позволило обнаружить огромную аномалию в 80 милях от северо-западного побережья Тихого океана. Уже более 300 лет давление в этой аномалии постепенно нарастает. Достигнув определенных пределов, оно может вызвать мега-землетрясение и сопутствующее цунами, способные опустошить регион под названием Каскадия, в котором проживает почти 15 миллионов человек. Ученые стремятся предсказать, насколько ужасными будут разрушения, когда произойдет этот Большой взрыв.
02. Убийца атлантического побережья / Atlantic Coast Killer
Рентгеновсое обследование поверхности Земли показывает, что атлантический остров Ла-Пальма уже несколько раз разламывался в результате гигантских оползней. Еще один оползень таких масштабов вполне может вызвать цунами, достаточно мощное, чтобы достигнуть и уничтожить восточное побережье США. В настоящее время ученые стремятся понять, что может вызвать это цунами, и насколько разрушительной может быть эта катастрофа.
03. Апокалипсис: Вулканы / Volcano Apocalypse
Рентгенография Земли показывает, что самый большой вулкан планеты находится под Йеллоустонским национальным парком. Он извергался много раз и в таких масштабах, что он бросил землю в вулканическую зиму. Ни один живой человек никогда не был свидетелем такого катастрофического события. Сейчас мы пытаемся выяснить, что может спровоцировать будущую вспышку и как долго мы будем получать уведомление.
Скриншоты:
--Релиз группа: Filmgrad.Ru ->
[filmgrad.ru].t148338.torrent 
Torrent: Registered [ 2020-05-26 08:10 ] · 273B63947BE67FE5F43DF4CF5EA0354FE3853EC3

Download .torrent

Download

21 KB

Status: checked
Completed: 0 times
Size: 3.98 GB
Оценка:  5 (Голосов: 2)
Поблагодарили: 1  Спасибо   (список)
terms.php
[Profile] [PM]
Display posts:    
Reply to topic

Current time is: 12-Jul 02:35

All times are UTC + 3



You cannot post new topics in this forum
You cannot reply to topics in this forum
You cannot edit your posts in this forum
You cannot delete your posts in this forum
You cannot vote in polls in this forum
You cannot attach files in this forum
You can download files in this forum