Искусство обмана / Lying and Stealing (2019) BDRip [H.264/720p]

Reply to topic
DL-List and Torrent activity
Size:  3.44 GB   |    Registered:  6 days   |    Completed:  0 times
Seeders:  30  [  0 KB/s  ]   Leechers:  13  [  0 KB/s  ]   Show peers in full details
 
     
 
 
Author Message

dybrik13 ®

Gender: Male

Longevity: 1 year 4 months

Posts: 6489

Location: Киев

Post 22-May-2020 20:16

[Quote]

Искусство обмана / Lying and Stealing- Производство: США / 50 Degrees Entertainmen
Жанр: Комедия, Криминал
Режиссер: Мэтт Аселтон
Актеры: Тео Джеймс, Эмили Ратаковски, Фред Меламед, Арис Альварадо, Фернанда Андраде, Тим Бейдер, Джо Букаро III, Rod Chaouqi, Рэй Рэй Чейз, Mia Cheung-Он — эксперт по искусству, вернее… его хищению. Она — модель с задатками актрисы и высоким IQ. Оба любят деньги и риск. Они просто созданы друг для друга… или это лишь фасад, чтобы провернуть изысканную и виртуозную аферу, больше похожую на арт-перформанс?
Возраст: 18+ (зрителям, достигшим 18 лет. запрещено для детей)
Рейтинг MPAA: R (лицам до 17 лет обязательно присутствие взрослого)
Дата мировой премьеры: 21 марта 2019
Дата российской премьеры: 18 июля 2019, «MEGOGO Distribution»
Продолжительность: 01:40:14
Качество видео: BDRip
Перевод: Дублированный, профессиональный многоголосый
Субтитры: Английские
Видео: AVC, 1280x534 (2.35:1), 23.976 fps, 3 887 Kbps
Аудио #1: AC-3, 48.0 KHz, 6 ch, 384 Kbps - Русский, Dub
Аудио #2: AC-3, 48.0 KHz, 2 ch, 192 Kbps - Русский, MVO, HDRezka Studio
Аудио #3: AC-3, 48.0 KHz, 6 ch, 448 Kbps - Английский, Original

MediaInfo:

General
Unique ID : 243378536586819622050175161852890207368 (0xB719004AEE90E98CB54FE5AFB1005488)
Complete name : D:\ФИЛЬМЫ\Искусство обмана.2019 (Тео Джеймс, Э.Ратаковски).mkv
Format : Matroska
Format version : Version 2
File size : 3.44 GiB
Duration : 1 h 40 min
Overall bit rate : 4 913 kb/s
Encoded date : UTC 2020-05-18 14:30:01
Writing application : mkvmerge v5.3.0 ('I could have danced') built on Feb 9 2012 10:38:07
Writing library : libebml v1.2.3 + libmatroska v1.3.0
Cover : Yes
Attachments : cover (4).png
Video
ID : 1
Format : AVC
Format/Info : Advanced Video Codec
Format profile : High@L4.1
Format settings : CABAC / 12 Ref Frames
Format settings, CABAC : Yes
Format settings, Reference frames : 12 frames
Codec ID : V_MPEG4/ISO/AVC
Duration : 1 h 40 min
Bit rate : 3 887 kb/s
Width : 1 280 pixels
Height : 534 pixels
Display aspect ratio : 2.40:1
Frame rate mode : Constant
Frame rate : 23.976 (23976/1000) FPS
Color space : YUV
Chroma subsampling : 4:2:0
Bit depth : 8 bits
Scan type : Progressive
Bits/(Pixel*Frame) : 0.237
Stream size : 2.65 GiB (77%)
Title : Enigma
Writing library : x264 core 152 r2851 ba24899
Encoding settings : cabac=1 / ref=12 / deblock=1:-2:-2 / analyse=0x3:0x113 / me=umh / subme=10 / psy=1 / psy_rd=1.00:0.05 / mixed_ref=1 / me_range=32 / chroma_me=1 / trellis=2 / 8x8dct=1 / cqm=0 / deadzone=21,11 / fast_pskip=0 / chroma_qp_offset=-3 / threads=12 / lookahead_threads=3 / sliced_threads=0 / nr=0 / decimate=0 / interlaced=0 / bluray_compat=0 / constrained_intra=0 / bframes=10 / b_pyramid=2 / b_adapt=2 / b_bias=0 / direct=3 / weightb=1 / open_gop=0 / weightp=2 / keyint=240 / keyint_min=23 / scenecut=40 / intra_refresh=0 / rc=2pass / mbtree=0 / bitrate=3887 / ratetol=1.0 / qcomp=0.60 / qpmin=0 / qpmax=51 / qpstep=4 / cplxblur=20.0 / qblur=0.5 / ip_ratio=1.40 / pb_ratio=1.30 / aq=1:1.00
Language : English
Default : Yes
Forced : No
Color range : Limited
Color primaries : BT.709
Transfer characteristics : BT.709
Matrix coefficients : BT.709
Audio #1
ID : 2
Format : AC-3
Format/Info : Audio Coding 3
Commercial name : Dolby Digital
Codec ID : A_AC3
Duration : 1 h 40 min
Bit rate mode : Constant
Bit rate : 384 kb/s
Channel(s) : 6 channels
Channel layout : L R C LFE Ls Rs
Sampling rate : 48.0 kHz
Frame rate : 31.250 FPS (1536 SPF)
Bit depth : 16 bits
Compression mode : Lossy
Stream size : 275 MiB (8%)
Title : Dub (iTunes)
Language : Russian
Service kind : Complete Main
Default : Yes
Forced : No
Audio #2
ID : 3
Format : AC-3
Format/Info : Audio Coding 3
Commercial name : Dolby Digital
Codec ID : A_AC3
Duration : 1 h 40 min
Bit rate mode : Constant
Bit rate : 192 kb/s
Channel(s) : 2 channels
Channel layout : L R
Sampling rate : 48.0 kHz
Frame rate : 31.250 FPS (1536 SPF)
Bit depth : 16 bits
Compression mode : Lossy
Stream size : 138 MiB (4%)
Title : MVO (HDRezka Studio)
Language : Russian
Service kind : Complete Main
Default : No
Forced : No
Audio #3
ID : 4
Format : AC-3
Format/Info : Audio Coding 3
Commercial name : Dolby Digital
Codec ID : A_AC3
Duration : 1 h 40 min
Bit rate mode : Constant
Bit rate : 448 kb/s
Channel(s) : 6 channels
Channel layout : L R C LFE Ls Rs
Sampling rate : 48.0 kHz
Frame rate : 31.250 FPS (1536 SPF)
Bit depth : 16 bits
Compression mode : Lossy
Stream size : 321 MiB (9%)
Title : Original
Language : English
Service kind : Complete Main
Default : No
Forced : No
Text #1
ID : 5
Format : UTF-8
Codec ID : S_TEXT/UTF8
Codec ID/Info : UTF-8 Plain Text
Title : Full
Language : English
Default : No
Forced : No
Text #2
ID : 6
Format : UTF-8
Codec ID : S_TEXT/UTF8
Codec ID/Info : UTF-8 Plain Text
Title : SDH
Language : English
Default : No
Forced : No
Menu
00:00:00.000 : en:Chapter 01
00:14:24.822 : en:Chapter 02
00:25:44.125 : en:Chapter 03
00:38:43.946 : en:Chapter 04
00:50:55.719 : en:Chapter 05
01:03:47.406 : en:Chapter 06
01:20:58.979 : en:Chapter 07
01:38:09.592 : en:Chapter 08
Скриншоты:
--Релиз группа: Filmgrad.Ru ->
[filmgrad.ru].t148199.torrent 
Torrent: Registered [ 2020-05-22 20:16 ] · C5080F9CC00900625C075E7D5BDBDB2A1FEA9A91

Download .torrent

Download

18 KB

Status: checked
Completed: 0 times
Size: 3.44 GB
Оценка:  5 (Голосов: 1)
Поблагодарили: 0  Спасибо
terms.php
[Profile] [PM]
Display posts:    
Reply to topic

Current time is: 29-May 03:22

All times are UTC + 3



You cannot post new topics in this forum
You cannot reply to topics in this forum
You cannot edit your posts in this forum
You cannot delete your posts in this forum
You cannot vote in polls in this forum
You cannot attach files in this forum
You can download files in this forum