Плохие банки / Bad Banks (2020) WEBRip [H.264/720p-LQ] (сезон 2, серии 1-6 из 6) HDRezka Studio

Reply to topic
DL-List and Torrent activity
Size:  6.88 GB   |    Registered:  9 days   |    Completed:  0 times

Seeder not seen: Never

Leechers:  14  [  0 KB/s  ]   Show peers in full details
 
     
 
 
Author Message

dybrik13 ®

Gender: Male

Longevity: 1 year 4 months

Posts: 6626

Location: Киев

Post 22-May-2020 08:56

[Quote]

Плохие банки / Bad Banks- Производство: Германия, Люксембург / Letterbox Filmproduktion, Iris Productions
Жанр: триллер, драма, криминал
Режиссер: Кристиан Швохов, Кристиан Цюберт
Актеры: Паула Бер, Барри Атсма, Дезире Носбуш, Альбрехт Шух, Май Дуонг Кьеу, Марк Лимпах, Жермен Вагнер, Тобиас Моретти, Жан-Марк Барр, Кенан Самади и др.-Карьера Яны не задалась с самого начала – ее уволили из солидного банка Люксембурга за небольшую ошибку. Вскоре девушка получает предложение от Габриэля Фенгера, руководителя крупного банка во Франкфурте. Она довольно быстро зарабатывает себе репутацию отличного специалиста, оказываясь одной из самых ценных сотрудниц банка Deutsche Invest. Но беда в том, что финансовая организация, в которой она работала раньше, конкурирует с нынешней, и девушка оказывается целью шантажа бывшего начальника.
Продолжительность: ~00:48:00 серия
Качество видео: WEBRip
Перевод: Многоголосый профессиональный (HDRezka Studio)
Субтитры: русские (на надписи)
Видео: AVC/H.264, 1280x720 (16:9), ~3225 Kbps
Аудио: AC3, 2 ch, 192 Kbps - русский

MediaInfo:

Общее
Уникальный идентификатор : 25236953193643955791074673656803682096 (0x12FC75DBDC9A7ED2FC429B21D3B8E730)
Полное имя : G:\Bad.Banks.S02E01.WEBRip.720p.mkv
Формат : Matroska
Версия формата : Version 4
Размер файла : 1,15 Гбайт
Продолжительность : 48 м. 2 с.
Режим общего битрейта : Переменный
Общий поток : 3 417 Кбит/сек
Дата кодирования : UTC 2020-05-19 02:19:38
Программа кодирования : mkvmerge v28.2.0 ('The Awakening') 64-bit
Библиотека кодирования : libebml v1.3.6 + libmatroska v1.4.9
Видео
Идентификатор : 1
Формат : AVC
Формат/Информация : Advanced Video Codec
Профиль формата : High@L4.1
Настройки формата : CABAC / 1 Ref Frames
Параметр CABAC формата : Да
Параметр RefFrames формата : 1 кадр
Идентификатор кодека : V_MPEG4/ISO/AVC
Продолжительность : 48 м. 2 с.
Вид битрейта : Переменный
Битрейт : 3 223 Кбит/сек
Максимальный битрейт : 2 000 Кбит/сек
Ширина : 1 280 пикселей
Высота : 720 пикселей
Соотношение сторон : 16:9
Режим частоты кадров : Постоянный
Частота кадров : 25,000 кадров/сек
Цветовое пространство : YUV
Субдискретизация насыщенности : 4:2:0
Битовая глубина : 8 бит
Тип развёртки : Прогрессивная
Бит/(Пиксели*Кадры) : 0.140
Размер потока : 1,08 Гбайт (94%)
Default : Да
Forced : Нет
Аудио
Идентификатор : 2
Формат : AC-3
Формат/Информация : Audio Coding 3
Коммерческое название : Dolby Digital
Идентификатор кодека : A_AC3
Продолжительность : 48 м. 2 с.
Вид битрейта : Постоянный
Битрейт : 192 Кбит/сек
Каналы : 2 канала
Channel layout : L R
Частота : 48,0 КГц
Частота кадров : 31,250 кадров/сек (1536 SPF)
Метод сжатия : С потерями
Размер потока : 66,0 Мбайт (6%)
Язык : Russian
Service kind : Complete Main
Default : Да
Forced : Нет
Скриншоты:
--Релиз группа: Filmgrad.Ru ->
[filmgrad.ru].t148167.torrent 
Torrent: Registered [ 2020-05-22 08:56 ] · B6B7012BFAEFCDA3344D47FB781272F400CFBF60

Download .torrent

Download

36 KB

Status: checked
Completed: 0 times
Size: 6.88 GB
Оценка:  5 (Голосов: 1)
Поблагодарили: 0  Спасибо
terms.php
[Profile] [PM]
Display posts:    
Reply to topic

Current time is: 01-Jun 04:33

All times are UTC + 3



You cannot post new topics in this forum
You cannot reply to topics in this forum
You cannot edit your posts in this forum
You cannot delete your posts in this forum
You cannot vote in polls in this forum
You cannot attach files in this forum
You can download files in this forum