Рэмбо: Последняя кровь / Rambo: Last Blood (Адриан Грюнберг) | Расширенная версия [2019, боевик, триллер, BDRip 1080p] DUB [Лицензия]

Reply to topic
DL-List and Torrent activity
Size:  10.99 GB   |    Registered:  11 days   |    Completed:  0 times
Seeders:  53  [  0 KB/s  ]   Leechers:  54  [  0 KB/s  ]   Show peers in full details
 
     
 
 
Author Message

kneht ®

Gender: Male

Longevity: 9 months 6 days

Posts: 641

Location: СССР

Post 21-May-2020 21:18

[Quote]

--Рэмбо: Последняя кровь / Rambo: Last Blood-«Настоящий герой бьётся до конца»-- Год выхода: 2019
Страна: США, Испания, Болгария
Студия: «Balboa Productions, Campbell Grobman Films, Dadi Film Group, …»
Жанр: боевик, триллер
Продолжительность: 01:40:30
Перевод: Профессиональный (дублированный) [Лицензия]
Режиссер: Адриан Грюнберг
В ролях: Сильвестр Сталлоне, Пас Вега, Ивет Монреаль, Луис Мэндилор, Оскар Хаенада, Шила Шах, Серхио Перис-Менчета, Джессика Мэдсен, Хоакин Косио, Адриана Барраса, Джени Ким, Паскасио Лопес, Александр Димитров, ...-Описание: Он хранил секреты всю жизнь, но пришло время взглянуть в глаза прошлому. В последний раз собраться и стать безжалостной машиной для убийства. Рэмбо снова встанет на смертельно опасный путь — путь мести, который ему придется пройти до конца.- -Качество видео: BDRip 1080p
Формат видео: MKV
Видеокодек: H.264
Аудиокодек: AC3
Видео: 1920x804 (2.40:1), 23.976 fps, MPEG-4 AVC, ~15.3 Мbps avg
Аудио #1: [RUS] 48.0 kHz, AC3 Dolby Digital, 5.1 (L,C,R) + LFE ch, ~640.00 kbps avg
Аудио #2: [ENG] 48.0 kHz, AC3 Dolby Digital, 5.1 (L,C,R) + LFE ch, ~640.00 kbps avg
Cубтитры: русские, английские (встроенные, отключаемые)
Дополнительно: Навигация по главам есть
-

MediaInfo:

General
Unique ID : 97246422232199983625131582325966673692 (0x4928FACABEDD8D247DC63D8F107A971C)
Complete name : E:Video111Rambo.Last.Blood.2019.EXTENDED.BDRip.1080p.seleZen.mkv
Format : Matroska
Format version : Version 4
File size : 11.0 GiB
Duration : 1 h 40 min
Overall bit rate : 15.6 Mb/s
Movie name : Rambo Last Blood 2019 EXTENDED from селезень
Encoded date : UTC 2020-05-21 13:27:17
Writing application : mkvmerge v40.0.0 ('Old Town Road + Pony') 64-bit
Writing library : libebml v1.3.9 + libmatroska v1.5.2
Video
ID : 1
Format : AVC
Format/Info : Advanced Video Codec
Format profile : High@L4.1
Format settings : CABAC / 5 Ref Frames
Format settings, CABAC : Yes
Format settings, Reference : 5 frames
Codec ID : V_MPEG4/ISO/AVC
Duration : 1 h 40 min
Bit rate : 14.3 Mb/s
Width : 1 920 pixels
Height : 804 pixels
Display aspect ratio : 2.40:1
Frame rate mode : Constant
Frame rate : 23.976 (24000/1001) FPS
Color space : YUV
Chroma subsampling : 4:2:0
Bit depth : 8 bits
Scan type : Progressive
Bits/(Pixel*Frame) : 0.387
Stream size : 10.1 GiB (92%)
Title : Legacy pwns u!
Writing library : x264 core 159 r2991+50 ce3db24 t_mod_New [(8 & 10)-bit@all X86_64]
Encoding settings : cabac=1 / ref=5 / deblock=1:-3:-3 / analyse=0x3:0x133 / me=umh / subme=11 / psy=1 / fade_compensate=0.00 / psy_rd=1.05:0.00 / mixed_ref=1 / me_range=32 / chroma_me=1 / trellis=2 / 8x8dct=1 / cqm=0 / deadzone=21,11 / fast_pskip=0 / chroma_qp_offset=-2 / threads=25 / lookahead_threads=6 / sliced_threads=0 / nr=0 / decimate=0 / interlaced=0 / bluray_compat=0 / constrained_intra=0 / fgo=0 / bframes=10 / b_pyramid=2 / b_adapt=2 / b_bias=0 / direct=3 / weightb=1 / open_gop=0 / weightp=2 / keyint=240 / keyint_min=23 / scenecut=40 / intra_refresh=0 / rc_lookahead=80 / rc=2pass / mbtree=0 / bitrate=14324 / ratetol=1.0 / qcomp=0.67 / qpmin=0:0:0 / qpmax=69:69:69 / qpstep=4 / cplxblur=20.0 / qblur=0.5 / vbv_maxrate=62500 / vbv_bufsize=78125 / nal_hrd=none / filler=0 / ip_ratio=1.25 / pb_ratio=1.20 / aq=3:0.81 / aq-sensitivity=10.00 / aq-factor=1.00:1.00:1.00 / aq2=0 / aq3=0
Language : English
Default : Yes
Forced : No
Color range : Limited
Color primaries : BT.709
Transfer characteristics : BT.709
Matrix coefficients : BT.709
Audio #1
ID : 2
Format : AC-3
Format/Info : Audio Coding 3
Commercial name : Dolby Digital
Codec ID : A_AC3
Duration : 1 h 40 min
Bit rate mode : Constant
Bit rate : 640 kb/s
Channel(s) : 6 channels
Channel layout : L R C LFE Ls Rs
Sampling rate : 48.0 kHz
Frame rate : 31.250 FPS (1536 SPF)
Compression mode : Lossy
Stream size : 462 MiB (4%)
Title : Dub [License]
Language : Russian
Service kind : Complete Main
Default : Yes
Forced : Yes
Audio #2
ID : 3
Format : AC-3
Format/Info : Audio Coding 3
Commercial name : Dolby Digital
Codec ID : A_AC3
Duration : 1 h 40 min
Bit rate mode : Constant
Bit rate : 640 kb/s
Channel(s) : 6 channels
Channel layout : L R C LFE Ls Rs
Sampling rate : 48.0 kHz
Frame rate : 31.250 FPS (1536 SPF)
Compression mode : Lossy
Stream size : 462 MiB (4%)
Title : Original
Language : English
Service kind : Complete Main
Default : No
Forced : No
Text #1
ID : 4
Format : UTF-8
Codec ID : S_TEXT/UTF8
Codec ID/Info : UTF-8 Plain Text
Duration : 1 h 33 min
Bit rate : 58 b/s
Count of elements : 809
Stream size : 40.0 KiB (0%)
Title : Full [Enigma]
Language : Russian
Default : No
Forced : No
Text #2
ID : 5
Format : UTF-8
Codec ID : S_TEXT/UTF8
Codec ID/Info : UTF-8 Plain Text
Duration : 1 h 19 min
Bit rate : 7 b/s
Count of elements : 202
Stream size : 4.52 KiB (0%)
Title : Forced
Language : English
Default : No
Forced : No
Text #3
ID : 6
Format : UTF-8
Codec ID : S_TEXT/UTF8
Codec ID/Info : UTF-8 Plain Text
Duration : 1 h 29 min
Bit rate : 37 b/s
Count of elements : 913
Stream size : 24.9 KiB (0%)
Title : Full
Language : English
Default : No
Forced : No
Text #4
ID : 7
Format : UTF-8
Codec ID : S_TEXT/UTF8
Codec ID/Info : UTF-8 Plain Text
Duration : 1 h 33 min
Bit rate : 44 b/s
Count of elements : 1197
Stream size : 30.5 KiB (0%)
Title : SDH
Language : English
Default : No
Forced : No
Menu
00:00:00.000 : en:Chapter 01
00:07:54.140 : en:Chapter 02
00:15:33.808 : en:Chapter 03
00:20:55.838 : en:Chapter 04
00:30:20.902 : en:Chapter 05
00:38:26.846 : en:Chapter 06
00:45:24.847 : en:Chapter 07
00:53:24.827 : en:Chapter 08
01:05:10.365 : en:Chapter 09
01:13:51.552 : en:Chapter 10
01:23:06.106 : en:Chapter 11
01:30:59.412 : en:Chapter 12
-

Скриншоты:

- ---Релиз группа: Filmgrad.Ru ->
[filmgrad.ru].t148163.torrent 
Torrent: Registered [ 2020-05-21 21:18 ] · 50120A62F9C6D47BE468790D9B82B93AFDB209D0

Download .torrent

Download

14 KB

Status: checked
Completed: 0 times
Size: 10.99 GB
Оценка:  5 (Голосов: 1)
Поблагодарили: 0  Спасибо
terms.php
[Profile] [PM]
Display posts:    
Reply to topic

Current time is: 02-Jun 10:05

All times are UTC + 3



You cannot post new topics in this forum
You cannot reply to topics in this forum
You cannot edit your posts in this forum
You cannot delete your posts in this forum
You cannot vote in polls in this forum
You cannot attach files in this forum
You can download files in this forum