Меломанка / Hi-Fi / High Fidelity [S01] (2020) WEB-DL 1080p | Кириллица

Reply to topic
DL-List and Torrent activity
Size:  11.28 GB   |    Registered:  7 days   |    Completed:  0 times
Seeders:  27  [  0 KB/s  ]   Leechers:  11  [  0 KB/s  ]   Show peers in full details
 
     
 
 
Author Message

dybrik13 ®

Gender: Male

Longevity: 1 year 4 months

Posts: 6489

Location: Киев

Post 21-May-2020 20:04

[Quote]

Меломанка / Hi-Fi / High Fidelity- Оригинальное название: Hi-Fi / High Fidelity
Год выхода: 2020
Жанр: мелодрама, комедия, музыка
Режиссер: Джеффри Рейнер, Наташа Лионн, Джесси Перец
В ролях: Зои Кравиц, Джейк Лэси, Да’Вин Джой Рэндольф, Дэвид Х. Холмс, Кингсли Бен-Адир, Рейнбоу Фрэнкс, Эдмунд Донован, Надин Малуф, Антонио Ортиз, Томас Доэрти-Вольный ремейк комедии 2000 года «Фанатик». Меломанка Роб, страдающая от одиночества владелица магазинчика пластинок, решает разобраться в себе и своих любовных неудачах. За помощью девушка обращается не к психотерапии, спорту или запрещенным веществам, а к поп-культуре и музыке, в которых она — настоящая профи.
Страна: США
Студия: ABC Signature Studios
Продолжительность: ~00:30:00 серия
Перевод: Профессиональный (дублированный) Кириллица по заказу КиноПоиск HD
Качество: WEB-DL 1080p
Формат: Matroska
Видео: 1920x1080 at 23.976 fps, MPEG-4 AVC, ~5000 kbps avg
Аудио#1: Russian: 48 kHz, AC3, 2/0 (L,R) ch, ~192 kbps avg |Дубляж, Кириллица по заказу КиноПоиск HD|
Аудио#2: English: 48 kHz, E-AC3, 3/2 (L,C,R,l,r) + LFE ch, ~256 kbps avg
Субтитры: English, Spanish
Примечание: Без рекламы

MediaInfo

Общее
Уникальный идентификатор : 185800577934193513814930053080969977302 (0x8BC7E3C19898BF82BB9D6B41E9111DD6)
Полное имя : High.Fidelity.s01e10.1080p.WEB-DL.H.264-BkD.mkv
Формат : Matroska
Версия формата : Version 4
Размер файла : 934 Мбайт
Продолжительность : 26 м. 40 с.
Общий поток : 4896 Кбит/сек
Дата кодирования : UTC 2020-05-19 18:12:35
Программа кодирования : mkvmerge v8.2.0 ('World of Adventure') 64bit
Библиотека кодирования : libebml v1.3.1 + libmatroska v1.4.2
Видео
Идентификатор : 1
Формат : AVC
Формат/Информация : Advanced Video Codec
Профиль формата : High@L4
Настройки формата : CABAC / 4 Ref Frames
Параметр CABAC формата : Да
Параметр RefFrames формата : 4 кадра
Идентификатор кодека : V_MPEG4/ISO/AVC
Продолжительность : 26 м. 40 с.
Битрейт : 4445 Кбит/сек
Ширина : 1920 пикселей
Высота : 1080 пикселей
Соотношение сторон : 16:9
Режим частоты кадров : Постоянный
Частота кадров : 23,976 (24000/1001) кадра/сек
Цветовое пространство : YUV
Субдискретизация насыщенности : 4:2:0
Битовая глубина : 8 бит
Тип развёртки : Прогрессивная
Бит/(Пиксели*Кадры) : 0.089
Размер потока : 848 Мбайт (91%)
Язык : English
Default : Да
Forced : Нет
Аудио #1
Идентификатор : 2
Формат : AC-3
Формат/Информация : Audio Coding 3
Коммерческое название : Dolby Digital
Идентификатор кодека : A_AC3
Продолжительность : 26 м. 40 с.
Вид битрейта : Постоянный
Битрейт : 192 Кбит/сек
Каналы : 2 канала
ChannelLayout : L R
Частота : 48,0 КГц
Частота кадров : 31,250 кадров/сек (1536 SPF)
Метод сжатия : С потерями
Размер потока : 36,6 Мбайт (4%)
Язык : Russian
ServiceKind/String : Complete Main
Default : Да
Forced : Нет
Аудио #2
Идентификатор : 3
Формат : E-AC-3
Формат/Информация : Enhanced AC-3
Коммерческое название : Dolby Digital Plus
Идентификатор кодека : A_EAC3
Продолжительность : 26 м. 40 с.
Вид битрейта : Постоянный
Битрейт : 256 Кбит/сек
Каналы : 6 каналов
ChannelLayout : L R C LFE Ls Rs
Частота : 48,0 КГц
Частота кадров : 31,250 кадров/сек (1536 SPF)
Метод сжатия : С потерями
Размер потока : 48,9 Мбайт (5%)
Язык : English
ServiceKind/String : Complete Main
Default : Нет
Forced : Нет
Текст #1
Идентификатор : 4
Формат : UTF-8
Идентификатор кодека : S_TEXT/UTF8
Идентификатор кодека/Информация : UTF-8 Plain Text
Продолжительность : 26 м. 30 с.
Битрейт : 93 бит/сек
ElementCount : 568
Размер потока : 18,2 Кбайт (0%)
Заголовок : English
Язык : English
Default : Нет
Forced : Нет
Текст #2
Идентификатор : 5
Формат : UTF-8
Идентификатор кодека : S_TEXT/UTF8
Идентификатор кодека/Информация : UTF-8 Plain Text
Продолжительность : 26 м. 1 с.
Битрейт : 80 бит/сек
ElementCount : 569
Размер потока : 15,4 Кбайт (0%)
Заголовок : Spanish; Castilian
Язык : Spanish
Default : Нет
Forced : Нет

Скриншоты

--Релиз группа: Filmgrad.Ru ->
[filmgrad.ru].t148157.torrent 
Torrent: Registered [ 2020-05-21 20:04 ] · AE685569FBF44D935BFB9E97BA1039FF70AD79E5

Download .torrent

Download

114 KB

Status: checked
Completed: 0 times
Size: 11.28 GB
Оценка:  5 (Голосов: 1)
Поблагодарили: 0  Спасибо
terms.php
[Profile] [PM]
Display posts:    
Reply to topic

Current time is: 29-May 04:47

All times are UTC + 3



You cannot post new topics in this forum
You cannot reply to topics in this forum
You cannot edit your posts in this forum
You cannot delete your posts in this forum
You cannot vote in polls in this forum
You cannot attach files in this forum
You can download files in this forum