Безопасные связи (2020) WEBRip [H.264/1080p-LQ] (сезон 1, серии 1-8 из 8)

Reply to topic
DL-List and Torrent activity
Size:  10.5 GB   |    Registered:  11 days   |    Completed:  0 times
Seeders:  8  [  0 KB/s  ]   Leechers:  24  [  0 KB/s  ]   Show peers in full details
 
     
 
 
Author Message

dybrik13 ®

Gender: Male

Longevity: 1 year 4 months

Posts: 6651

Location: Киев

Post 21-May-2020 18:40

[Quote]

Безопасные связи- Производство: Россия / START STUDIO
Жанр: драма
Режиссер: Константин Богомолов
Актеры: Любовь Аксенова, Игорь Миркурбанов, Никита Ефремов, Мария Шумакова, Александра Ребенок, Леонид Бичевин, Надежда Маркина, Сергей Сосновский и др.-Три истории отношений, три жанра. Маша и Коля – любовники, застрявшие в самоизоляции со своими законными супругами. Пары дружат семьями, и бесконечная ложь пропитывает их звонки друг другу, создавая массу комических и драматических ситуаций. Анна живет одна, и звонки Виктора ей, похоже, не очень приятны. Но она все равно отвечает на них и почему-то не прерывает разговор с давним знакомым, в отношениях с которым есть какая-то тайна из прошлого. Девушка ищет в интернете работу и получает странное предложение от мужчины, по возрасту годящегося ей в отцы.
Возраст: 18+ (зрителям, достигшим 18 лет. запрещено для детей)
Дата российской премьеры: 26 апреля 2020
Продолжительность: ~00:25:00 серия
Качество видео: WEBRip
Присутствует ненормативная лексика.
Видео: AVC/H.264, 1920x1080, ~6480 Kbps
Аудио: AC3, 2 ch, 254 Kbps - русский

MediaInfo:

Общее
Уникальный идентификатор : 26874379706187942295288030764170680196 (0x1437D138095332B1440BCCB076C31784)
Полное имя : /Volumes/HDD/Movies/Bezopasnye.svyazi.s.01.2020.WEB-DL.1080p/Bezopasnye.svyazi.s.01.ep.01.2020.WEB-DL.1080p.mkv
Формат : Matroska
Версия формата : Version 4
Размер файла : 1,24 Гбайт
Продолжительность : 26 м. 53 с.
Общий поток : 6 586 Кбит/сек
Дата кодирования : UTC 2020-04-26 18:54:09
Программа кодирования : mkvmerge v45.0.0 ('Heaven in Pennies') 64-bit
Библиотека кодирования : libebml v1.3.10 + libmatroska v1.5.2
Видео
Идентификатор : 1
Формат : AVC
Формат/Информация : Advanced Video Codec
Профиль формата : High@L4
Настройки формата : CABAC / 4 Ref Frames
Параметр CABAC формата : Да
Параметр ReFrames формата : 4 кадра
Идентификатор кодека : V_MPEG4/ISO/AVC
Продолжительность : 26 м. 52 с.
Битрейт : 6 480 Кбит/сек
Ширина : 1 920 пикселей
Высота : 1 080 пикселей
Соотношение сторон : 16:9
Режим частоты кадров : Постоянный
Частота кадров : 25,000 кадров/сек
Цветовое пространство : YUV
Субдискретизация насыщенности : 4:2:0
Битовая глубина : 8 бит
Тип развёртки : Прогрессивная
Бит/(Пиксели*Кадры) : 0.125
Размер потока : 1,19 Гбайт (96%)
Библиотека кодирования : x264 core 152
Настройки программы : cabac=1 / ref=2 / deblock=1:0:0 / analyse=0x3:0x113 / me=hex / subme=6 / psy=1 / psy_rd=1.00:0.00 / mixed_ref=1 / me_range=16 / chroma_me=1 / trellis=1 / 8x8dct=1 / cqm=0 / deadzone=21,11 / fast_pskip=1 / chroma_qp_offset=-2 / threads=12 / lookahead_threads=2 / sliced_threads=0 / nr=0 / decimate=1 / interlaced=0 / bluray_compat=0 / constrained_intra=0 / bframes=3 / b_pyramid=2 / b_adapt=1 / b_bias=0 / direct=1 / weightb=1 / open_gop=0 / weightp=1 / keyint=120 / keyint_min=24 / scenecut=40 / intra_refresh=0 / rc_lookahead=30 / rc=abr / mbtree=1 / bitrate=6480 / ratetol=1.0 / qcomp=0.60 / qpmin=0 / qpmax=69 / qpstep=4 / vbv_maxrate=7776 / vbv_bufsize=15552 / nal_hrd=none / filler=0 / ip_ratio=1.40 / aq=1:1.00
Default : Да
Forced : Нет
Цветовой диапазон : Limited
Основные цвета : BT.709
Характеристики трансфера : BT.709
Коэффициенты матрицы : BT.709
Аудио
Идентификатор : 2
Формат : AAC LC
Формат/Информация : Advanced Audio Codec Low Complexity
Идентификатор кодека : A_AAC-2
Продолжительность : 26 м. 52 с.
Битрейт : 254 Кбит/сек
Каналы : 2 канала
Channel layout : L R
Частота : 48,0 КГц
Частота кадров : 46,875 кадров/сек (1024 SPF)
Метод сжатия : С потерями
Задержка видео : -80 мс.
Размер потока : 48,9 Мбайт (4%)
Default : Да
Forced : Нет
Скриншоты:
--Релиз группа: Filmgrad.Ru ->
[filmgrad.ru].t148153.torrent 
Torrent: Registered [ 2020-05-21 18:40 ] · 20732749D262F4419ACAD5582C6DD49404D07D1E

Download .torrent

Download

107 KB

Status: checked
Completed: 0 times
Size: 10.5 GB
Оценка:  5 (Голосов: 1)
Поблагодарили: 0  Спасибо
terms.php
[Profile] [PM]
Display posts:    
Reply to topic

Current time is: 02-Jun 11:46

All times are UTC + 3



You cannot post new topics in this forum
You cannot reply to topics in this forum
You cannot edit your posts in this forum
You cannot delete your posts in this forum
You cannot vote in polls in this forum
You cannot attach files in this forum
You can download files in this forum