Разбитое зеркало (2020) SATRip [H.264] (сезон 1, серии 1-8 из 8)

Reply to topic
DL-List and Torrent activity
Size:  4.3 GB   |    Registered:  11 days   |    Completed:  0 times
Seeders:  199  [  0 KB/s  ]   Leechers:  69  [  0 KB/s  ]   Show peers in full details
 
     
 
 
Author Message

dybrik13 ®

Gender: Male

Longevity: 1 year 4 months

Posts: 6651

Location: Киев

Post 21-May-2020 16:23

[Quote]

Разбитое зеркало- Производство: Россия / ЕМГ
Жанр: драма
Режиссер: Олег Фомин
Актеры: Екатерина Гусева, Александр Лазарев мл., Алексей Макаров, Екатерина Волкова, Владимир Гостюхин, Станислав Дужников, Алла Будницкая, Валерия Волкова, Сергей Лазарев и др.-В лесу находят тело пропавшей много лет назад почтальонши. В её сумке сохранилось несколько писем, и их отправляют адресатам. Так Даша получает весточку из прошлого от своего жениха Олега. Это письмо переворачивает всю её жизнь.
Дата российской премьеры: 18 мая 2020 Россия 1
Продолжительность: ~00:44:00 серия
Качество видео: SATRip
Видео: AVC/H.264, 720х400, ~1500 Kbps
Аудио: AC3, 2 ch, 192 Kbps

Mediainfo:

Общее
Уникальный идентификатор : 182306060933357014951468340952502862343 (0x8926DEC41527D80591DEE76879EF8207)
Полное имя : H:\Разбитое зеркало\01 серия_Разбитое зеркало_rip by_Aleksan55 .mkv
Формат : Matroska
Версия формата : Version 2
Размер файла : 536 Мбайт
Продолжительность : 44 м. 12 с.
Общий поток : 1694 Кбит/сек
Дата кодирования : UTC 2020-05-18 11:15:13
Программа кодирования : mkvmerge v7.8.0 ('River Man') 32bit built on Apr 3 2015 12:11:22
Библиотека кодирования : libebml v1.3.1 + libmatroska v1.4.2
Видео
Идентификатор : 1
Формат : AVC
Формат/Информация : Advanced Video Codec
Профиль формата : High@L4.1
Настройки формата : CABAC / 12 Ref Frames
Параметр CABAC формата : Да
Параметр RefFrames формата : 12 кадров
Идентификатор кодека : V_MPEG4/ISO/AVC
Продолжительность : 44 м. 12 с.
Битрейт : 1500 Кбит/сек
Ширина : 720 пикселей
Высота : 400 пикселей
Соотношение сторон : 16:9
Режим частоты кадров : Постоянный
Частота кадров : 25,000 кадров/сек
Цветовое пространство : YUV
Субдискретизация насыщенности : 4:2:0
Битовая глубина : 8 бит
Тип развёртки : Прогрессивная
Бит/(Пиксели*Кадры) : 0.208
Размер потока : 464 Мбайт (87%)
Библиотека кодирования : x264 core 146 r2538 121396c
Настройки программы : cabac=1 / ref=12 / deblock=1:-2:-2 / analyse=0x3:0x133 / me=umh / subme=9 / psy=1 / psy_rd=1.00:0.15 / mixed_ref=0 / me_range=24 / chroma_me=1 / trellis=2 / 8x8dct=1 / cqm=0 / deadzone=21,11 / fast_pskip=0 / chroma_qp_offset=-3 / threads=10 / lookahead_threads=5 / sliced_threads=0 / nr=0 / decimate=0 / interlaced=0 / bluray_compat=0 / constrained_intra=0 / bframes=12 / b_pyramid=2 / b_adapt=2 / b_bias=0 / direct=3 / weightb=1 / open_gop=0 / weightp=2 / keyint=250 / keyint_min=25 / scenecut=40 / intra_refresh=0 / rc_lookahead=40 / rc=2pass / mbtree=1 / bitrate=1500 / ratetol=1.0 / qcomp=0.60 / qpmin=0 / qpmax=69 / qpstep=4 / cplxblur=20.0 / qblur=0.5 / ip_ratio=1.40 / aq=1:1.00
Default : Да
Forced : Нет
Цветовой диапазон : Limited
Основные цвета : BT.709
Характеристики трансфера : BT.709
Коэффициенты матрицы : BT.709
Аудио
Идентификатор : 2
Формат : AC-3
Формат/Информация : Audio Coding 3
Коммерческое название : Dolby Digital
Идентификатор кодека : A_AC3
Продолжительность : 44 м. 12 с.
Вид битрейта : Постоянный
Битрейт : 192 Кбит/сек
Каналы : 2 канала
ChannelLayout : L R
Частота : 48,0 КГц
Частота кадров : 31,250 кадров/сек (1536 SPF)
Метод сжатия : С потерями
Размер потока : 60,7 Мбайт (11%)
ServiceKind/String : Complete Main
Default : Да
Forced : Нет
Скриншоты:
--Релиз группа: Filmgrad.Ru ->
[filmgrad.ru].t148150.torrent 
Torrent: Registered [ 2020-05-21 16:23 ] · 3972B16B0E6028987D9936A2AE86174785F11E11

Download .torrent

Download

23 KB

Status: checked
Completed: 0 times
Size: 4.3 GB
Оценка:  5 (Голосов: 1)
Поблагодарили: 0  Спасибо
terms.php
[Profile] [PM]
Display posts:    
Reply to topic

Current time is: 02-Jun 10:08

All times are UTC + 3



You cannot post new topics in this forum
You cannot reply to topics in this forum
You cannot edit your posts in this forum
You cannot delete your posts in this forum
You cannot vote in polls in this forum
You cannot attach files in this forum
You can download files in this forum