Клерк / Серии: 1-4 из 4 (Дмитрий Коробкин) [2020, драма, криминал, HDTV 1080i]

Reply to topic
DL-List and Torrent activity
Size:  10.63 GB   |    Registered:  12 days   |    Completed:  0 times
Seeders:  57  [  0 KB/s  ]   Leechers:  17  [  0 KB/s  ]   Show peers in full details
 
     
 
 
Author Message

dybrik13 ®

Gender: Male

Longevity: 1 year 4 months

Posts: 6651

Location: Киев

Post 21-May-2020 09:52

[Quote]

Клерк
Год выпуска: 2020
Производство: ООО «Киностудия КИТ»
Жанр: драма, криминал
Продолжительность: ~00:48:00 серия
Субтитры: нет
Режиссёр: Дмитрий Коробкин
В ролях: Арсений Робак, Ингрид Олеринская, Джемал Тетруашвили, Игорь Хрипунов, Екатерина Стулова, Кирилл Емельянов, Александра Богданова
Описание: Женя Скороходов – обычный клерк. Он заканчивает Финансовую академию, работает операционистом в банке. Его серую жизнь скрашивает безнадежная влюбленность в красавицу-коллегу Вику. Как-то в обеденный перерыв Женя развлекает Вику и коллег тем, что придумывает план идеального ограбления их банка. На следующий день происходит ограбление. Главный подозреваемый - Женя. С риском для жизни он начинает собственное расследование, в ходе которого, понимает, что Вика совсем не та, за кого себя выдает.

Реклама: Нет.
Качество: HDTV 1080i
Формат: TS
Видео кодек: AVC
Аудио кодек: MP2
Видео: MPEG4 AVC Video, H264, 16:9, 1920x1080, 25 fps, ~7300 kbps, 0.140 bit/pixel
Аудио: MP2, 2 ch, 256 kbps, 16 bits, 48.0 KHz

MI

General
ID : 1 (0x1)
Complete name : D:\Klerk.2020.HDTV(1080i).25Kuzmich\Klerk.e01.HDTV(1080i).25Kuzmich.ts
Format : MPEG-TS
File size : 2.67 GiB
Duration : 48 min 10 s
Overall bit rate mode : Variable
Overall bit rate : 7 919 kb/s
Video
ID : 5501 (0x157D)
Menu ID : 5500 (0x157C)
Format : AVC
Format/Info : Advanced Video Codec
Format profile : High@L4
Format settings : CABAC / 3 Ref Frames
Format settings, CABAC : Yes
Format settings, ReFrames : 3 frames
Codec ID : 27
Duration : 48 min 10 s
Bit rate : 7 269 kb/s
Width : 1 920 pixels
Height : 1 080 pixels
Display aspect ratio : 16:9
Frame rate : 25.000 FPS
Standard : Component
Color space : YUV
Chroma subsampling : 4:2:0
Bit depth : 8 bits
Scan type : Interlaced
Scan type, store method : Separated fields
Scan order : Top Field First
Bits/(Pixel*Frame) : 0.140
Stream size : 2.45 GiB (92%)
Color range : Limited
Color primaries : BT.709
Transfer characteristics : BT.709
Matrix coefficients : BT.709
Audio
ID : 5504 (0x1580)
Menu ID : 5500 (0x157C)
Format : MPEG Audio
Format version : Version 1
Format profile : Layer 2
Codec ID : 3
Duration : 48 min 10 s
Bit rate mode : Constant
Bit rate : 256 kb/s
Channel(s) : 2 channels
Sampling rate : 48.0 kHz
Frame rate : 41.667 FPS (1152 SPF)
Compression mode : Lossy
Delay relative to video : -40 ms
Stream size : 88.2 MiB (3%)
Language : Russian

Скриншоты


--Релиз группа: Filmgrad.Ru ->
[filmgrad.ru].t148138.torrent 
Torrent: Registered [ 2020-05-21 09:52 ] · 21BE33999DA08E4B9A1A4875C80D7407DD75757E

Download .torrent

Download

54 KB

Status: checked
Completed: 0 times
Size: 10.63 GB
Оценка:  5 (Голосов: 1)
Поблагодарили: 0  Спасибо
terms.php
[Profile] [PM]
Display posts:    
Reply to topic

Current time is: 02-Jun 11:57

All times are UTC + 3



You cannot post new topics in this forum
You cannot reply to topics in this forum
You cannot edit your posts in this forum
You cannot delete your posts in this forum
You cannot vote in polls in this forum
You cannot attach files in this forum
You can download files in this forum