Родители года / Настрогали / Breeders (2020) WEB-DL [H.264/1080p-LQ] (сезон 1, серии 1-10 из 10) Кравец-Рекордз

Reply to topic
DL-List and Torrent activity
Size:  15.51 GB   |    Registered:  8 days   |    Completed:  0 times
Seeders:  1  [  0 KB/s  ]   Leechers:  30  [  0 KB/s  ]   Show peers in full details
 
     
 
 
Author Message

dybrik13 ®

Gender: Male

Longevity: 1 year 4 months

Posts: 6489

Location: Киев

Post 20-May-2020 18:47

[Quote]

Родители года / Настрогали / Breeders- Производство: Великобритания / Avalon Television, BBC Television Centre, Sky
Жанр: комедия
Режиссер: Крис Эддисон, Бен Палмер
Актеры: Мартин Фриман, Дэйзи Хаггард, Джордж Уэйкман, Джайда Эйлс, Алан Армстронг, Джоэнна Бэйкон, Патрик Балади, Стелла Гонет, Майкл МакКин, Тим Стид-Пол и Элли — супруги с двумя детьми. Они очень стараются быть идеальными родителями и достойно воспитывать отпрысков, однако найти баланс между семьёй, друзьями и работой оказывается непросто.
Дата мировой премьеры: 2 марта 2020
Продолжительность: ~00:30:00 серия
Качество видео: WEB-DL
Перевод: Многоголосый профессиональный (Кравец-Рекордз)
Язык озвучки: русский, английский
Субтитры: английские (SDH)
Видео: AVC/H.264, 1920x1080, ~8873 Kbps
Аудио 1: AC3, 2 ch, 192 Kbps - русский
Аудио 2: E-AC3, 6 ch, 640 Kbps - английский

MediaInfo:

Общее
Уникальный идентификатор : 2574151571981974668067045690172796140 (0x1EFC378A0C46390193D1B7C2D286CEC)
Полное имя : /Volumes/HDD/Movies/Breeders.S01.1080p.AMZN.WEB-DL.DD+5.1.H.264-iKA_THD/Breeders.S01E01.1080p.AMZN.WEB-DL.DD+5.1.H.264-iKA_THD.mkv
Формат : Matroska
Версия формата : Version 4
Размер файла : 2,01 Гбайт
Продолжительность : 29 м. 37 с.
Общий поток : 9 707 Кбит/сек
Дата кодирования : UTC 2020-05-19 21:16:28
Программа кодирования : mkvmerge v46.0.0 ('No Deeper Escape') 64-bit
Библиотека кодирования : libebml v1.3.10 + libmatroska v1.5.2
Видео
Идентификатор : 1
Формат : AVC
Формат/Информация : Advanced Video Codec
Профиль формата : High@L4
Настройки формата : CABAC / 4 Ref Frames
Параметр CABAC формата : Да
Параметр ReFrames формата : 4 кадра
Идентификатор кодека : V_MPEG4/ISO/AVC
Продолжительность : 29 м. 37 с.
Вид битрейта : Постоянный
Битрейт : 8 873 Кбит/сек
Номинальный битрейт : 10 000 Кбит/сек
Ширина : 1 920 пикселей
Высота : 1 080 пикселей
Соотношение сторон : 16:9
Режим частоты кадров : Постоянный
Частота кадров : 23,976 (24000/1001) кадра/сек
Цветовое пространство : YUV
Субдискретизация насыщенности : 4:2:0
Битовая глубина : 8 бит
Тип развёртки : Прогрессивная
Бит/(Пиксели*Кадры) : 0.178
Размер потока : 1,84 Гбайт (91%)
Язык : English
Default : Да
Forced : Нет
Цветовой диапазон : Limited
Основные цвета : BT.709
Характеристики трансфера : BT.709
Коэффициенты матрицы : BT.709
Аудио #1
Идентификатор : 2
Формат : AC-3
Формат/Информация : Audio Coding 3
Коммерческое название : Dolby Digital
Идентификатор кодека : A_AC3
Продолжительность : 29 м. 37 с.
Вид битрейта : Постоянный
Битрейт : 192 Кбит/сек
Каналы : 2 канала
Channel layout : L R
Частота : 48,0 КГц
Частота кадров : 31,250 кадров/сек (1536 SPF)
Метод сжатия : С потерями
Размер потока : 40,7 Мбайт (2%)
Язык : Russian
Service kind : Complete Main
Default : Да
Forced : Нет
Аудио #2
Идентификатор : 3
Формат : E-AC-3
Формат/Информация : Enhanced AC-3
Коммерческое название : Dolby Digital Plus
Идентификатор кодека : A_EAC3
Продолжительность : 29 м. 37 с.
Вид битрейта : Постоянный
Битрейт : 640 Кбит/сек
Каналы : 6 каналов
Channel layout : L R C LFE Ls Rs
Частота : 48,0 КГц
Частота кадров : 31,250 кадров/сек (1536 SPF)
Метод сжатия : С потерями
Размер потока : 136 Мбайт (7%)
Язык : English
Service kind : Complete Main
Default : Нет
Forced : Нет
Текст
Идентификатор : 4
Формат : UTF-8
Идентификатор кодека : S_TEXT/UTF8
Идентификатор кодека/Информация : UTF-8 Plain Text
Продолжительность : 29 м. 27 с.
Битрейт : 94 бит/сек
Count of elements : 752
Размер потока : 20,4 Кбайт (0%)
Заголовок : SDH
Язык : English
Default : Нет
Forced : Нет
Скриншоты:
--Релиз группа: Filmgrad.Ru ->
[filmgrad.ru].t148126.torrent 
Torrent: Registered [ 2020-05-20 18:47 ] · 77A0325AECD2D5A433E490983ECD3BAB6A70B4C3

Download .torrent

Download

157 KB

Status: checked
Completed: 0 times
Size: 15.51 GB
Оценка:  5 (Голосов: 1)
Поблагодарили: 0  Спасибо
terms.php
[Profile] [PM]
Display posts:    
Reply to topic

Current time is: 29-May 03:19

All times are UTC + 3



You cannot post new topics in this forum
You cannot reply to topics in this forum
You cannot edit your posts in this forum
You cannot delete your posts in this forum
You cannot vote in polls in this forum
You cannot attach files in this forum
You can download files in this forum