Барин (Николай Потапов) [2006, мелодрама, комедия, DVDRip]

Reply to topic
DL-List and Torrent activity
Size:  1.46 GB   |    Registered:  12 days   |    Completed:  0 times

Seeder not seen: Never

Leechers:  15  [  0 KB/s  ]   Show peers in full details
 
     
 
 
Author Message

STALKER ®

Gender: Male

Longevity: 8 months 9 days

Posts: 731

Post 20-May-2020 13:51

[Quote]

Барин
Страна: Россия, Украина
Жанр: мелодрама, комедия
Год выпуска: 2006
Продолжительность: 01:38:39
Субтитры: нет-Режиссер: Николай Потапов-В ролях: Павел Майков, Анна Кузина, Оксана Филоненко, Иван Бортник, Игорь Тихомиров, Андрей Павленко, Максим Коновалов, Юрий Дубровин, Сергей Гаврилюк, Александр Белина, Татьяна Камбурова, Ирина Андреева, Людмила Игнатенко, Леонид Микитенко, Ольга Орлова, Оксана Бобер, Тимофей Маскаленко, Александр Радько, Марина Исакова, Дэн Архипов-Описание: Собравшись на квартире именинника Никиты - успешного бизнесмена, - друзья перевозят его спящего на вертолёте в деревеньку, находящуюся в глухих лесах среди непроходимых болот. Сговорившись с местными крестьянами и наняв двух профессиональных актёров на роли приказчика и ключницы, они одевают всех жителей в костюмы крепостных крестьян начала XIX века. Очнувшийся Никита, видит себя в необычном костюме среди незнакомых людей, которые ему кланяются и называют не иначе как "барин Никита Петрович". Ему поначалу кажется, что он сошёл с ума, но хорошая игра актёров приводит его к убеждению, что он действительно провалился в прошлое...-Качество видео: DVDRip
Формат видео: AVI
Видео: 704x528 (1.33:1), 25 fps, XviD build 73 ~1847 kbps avg, 0.20 bit/pixel
Аудио: 48 kHz, AC3 Dolby Digital, 2/0 (L,R) ch, ~256 kbps-[box]Сэмпл[/box]-

Сравнение

http://rustorka.me/viewtopic.php?t=385069
https://screenshotcomparison.com/comparison/2507/picture:2
+ там рассинхрон и апскейл.
Цитата:

MediaInfo

Код:
Формат : AVI
Формат/Информация : Audio Video Interleave
Размер файла : 1,46 Гбайт
Продолжительность : 1 ч. 38 м.
Общий поток : 2 113 Кбит/сек
Название фильма : Барин_2006_DVDRip
Программа кодирования : VirtualDubMod 1.5.10.3 | www.virtualdub-fr.org || (build 2550/release)
Авторское право : порошков
Видео
Идентификатор : 0
Формат : MPEG-4 Visual
Профиль формата : Advanced Simple@L5
Настройки формата : BVOP1 / Custom Matrix
Параметр BVOP формата : 1
Параметр QPel формата : Нет
Параметр GMC формата : Без точки перехода
Параметр матрицы формата : Выборочная
Идентификатор кодека : XVID
Идентификатор кодека/Подсказка : XviD
Продолжительность : 1 ч. 38 м.
Битрейт : 1 847 Кбит/сек
Ширина : 704 пикселя
Высота : 528 пикселей
Соотношение сторон : 4:3
Частота кадров : 25,000 кадров/сек
Цветовое пространство : YUV
Субдискретизация насыщенности : 4:2:0
Битовая глубина : 8 бит
Тип развёртки : Прогрессивная
Метод сжатия : С потерями
Бит/(Пиксели*Кадры) : 0.199
Размер потока : 1,27 Гбайт (87%)
Библиотека кодирования : XviD 73
Аудио
Идентификатор : 1
Формат : AC-3
Формат/Информация : Audio Coding 3
Коммерческое название : Dolby Digital
Идентификатор кодека : 2000
Продолжительность : 1 ч. 38 м.
Вид битрейта : Постоянный
Битрейт : 256 Кбит/сек
Каналы : 2 канала
Channel layout : L R
Частота : 48,0 КГц
Частота кадров : 31,250 кадров/сек (1536 SPF)
Метод сжатия : С потерями
Размер потока : 181 Мбайт (12%)
Выравнивание : Разделение по промежуткам
Продолжительность промежутка : 40 мс. (1,00 видеокадр)
Время предзагрузки промежутка : 500 мс.
Service kind : Complete Main

Скриншоты


--Релиз группа: Filmgrad.Ru ->
[filmgrad.ru].t148125.torrent 
Torrent: Registered [ 2020-05-20 13:51 ] · 29380EC226033A011C62541539AA437380DC44FD

Download .torrent

Download

15 KB

Status: checked
Completed: 0 times
Size: 1.46 GB
Оценка:  5 (Голосов: 1)
Поблагодарили: 0  Спасибо
terms.php
[Profile] [PM]
Display posts:    
Reply to topic

Current time is: 02-Jun 11:59

All times are UTC + 3



You cannot post new topics in this forum
You cannot reply to topics in this forum
You cannot edit your posts in this forum
You cannot delete your posts in this forum
You cannot vote in polls in this forum
You cannot attach files in this forum
You can download files in this forum