Восточный ветер 4: Легенда о Воине / Ostwind: Aris Ankunft (Тереза фон Эльц / Theresa von Eltz) [2019, Германия, семейный, BDRip] Dub (iTunes)

Reply to topic
DL-List and Torrent activity
Size:  1.46 GB   |    Registered:  8 days   |    Completed:  0 times

Seeder not seen: Never

Leechers:  11  [  0 KB/s  ]   Show peers in full details
 
     
 
 
Author Message

STALKER ®

Gender: Male

Longevity: 8 months 6 days

Posts: 731

Post 20-May-2020 11:04

[Quote]

Восточный ветер 4: Легенда о Воине / Ostwind: Aris Ankunft
Страна: Германия
Жанр: семейный
Год выпуска: 2019
Продолжительность: 01:46:07
Перевод: Профессиональный (дублированный) | iTunes
Субтитры: нет
Оригинальная аудиодорожка: нет-Режиссер:
Тереза фон Эльц / Theresa von Eltz-В ролях:
Луна Пайяно, Марион Алессандра Бекер, Мерет Беккер, Ханна Бинке, Амбер Бонгард, Детлев Бук, Тимо Диркес, Лили Эппли, Корнелия Фробёсс, Михаэль Гримм-Описание:
Несчастный случай испытывает на прочность тонкую душевную связь между Микой и Оствиндом. Всё меняется, когда Фанни привозит в Кальтенбах Ари - девочку с очень сложным характером и непростой судьбой. Ари практически сразу необъяснимым образом находит подход к неукротимому Оствинду.-Качество видео: BDRip | OST_WIND4_2019_RMX_BLUEBIRD
Формат видео: AVI
Видео: 720x304 (2.37:1), 24.000 fps, XviD build 73 ~1579 kbps avg, 0.30 bit/pixel
Аудио: 48 kHz, AC3 Dolby Digital, 3/2 (L,C,R,l,r) + LFE ch, ~384 kbps-[box]Сэмпл[/box]-

MediaInfo

Код:
Формат : AVI
Формат/Информация : Audio Video Interleave
Размер файла : 1,46 Гбайт
Продолжительность : 1 ч. 46 м.
Общий поток : 1 973 Кбит/сек
Название фильма : Восточный ветер 4_Легенда о Воине_2019_BDRip
Программа кодирования : VirtualDubMod 1.5.10.3 | www.virtualdub-fr.org || (build 2550/release)
Авторское право : порошков
Видео
Идентификатор : 0
Формат : MPEG-4 Visual
Профиль формата : Advanced Simple@L5
Настройки формата : BVOP1 / Custom Matrix
Параметр BVOP формата : 1
Параметр QPel формата : Нет
Параметр GMC формата : Без точки перехода
Параметр матрицы формата : Выборочная
Идентификатор кодека : XVID
Идентификатор кодека/Подсказка : XviD
Продолжительность : 1 ч. 46 м.
Битрейт : 1 580 Кбит/сек
Ширина : 720 пикселей
Высота : 304 пикселя
Соотношение сторон : 2,35:1
Частота кадров : 24,000 кадра/сек
Цветовое пространство : YUV
Субдискретизация насыщенности : 4:2:0
Битовая глубина : 8 бит
Тип развёртки : Прогрессивная
Метод сжатия : С потерями
Бит/(Пиксели*Кадры) : 0.301
Размер потока : 1,17 Гбайт (80%)
Библиотека кодирования : XviD 73
Аудио
Идентификатор : 1
Формат : AC-3
Формат/Информация : Audio Coding 3
Коммерческое название : Dolby Digital
Идентификатор кодека : 2000
Продолжительность : 1 ч. 46 м.
Вид битрейта : Постоянный
Битрейт : 384 Кбит/сек
Каналы : 6 каналов
Channel layout : L R C LFE Ls Rs
Частота : 48,0 КГц
Частота кадров : 31,250 кадров/сек (1536 SPF)
Метод сжатия : С потерями
Размер потока : 291 Мбайт (19%)
Выравнивание : Разделение по промежуткам
Продолжительность промежутка : 42 мс. (1,00 видеокадр)
Время предзагрузки промежутка : 500 мс.
Service kind : Complete Main

Скриншоты


--Релиз группа: Filmgrad.Ru ->
[filmgrad.ru].t148117.torrent 
Torrent: Registered [ 2020-05-20 11:04 ] · F4159522C925D0BEAD4471F7B18AACBCE1255879

Download .torrent

Download

15 KB

Status: checked
Completed: 0 times
Size: 1.46 GB
Оценка:  5 (Голосов: 1)
Поблагодарили: 0  Спасибо
terms.php
[Profile] [PM]
Display posts:    
Reply to topic

Current time is: 29-May 03:50

All times are UTC + 3



You cannot post new topics in this forum
You cannot reply to topics in this forum
You cannot edit your posts in this forum
You cannot delete your posts in this forum
You cannot vote in polls in this forum
You cannot attach files in this forum
You can download files in this forum