Опасная роль Джин Сиберг / Seberg (Бенедикт Эндрюс / Benedict Andrews) [2019, Великобритания, США, Триллер, драма, биография, WEB-DLRip] Dub (Itunes)

Reply to topic
DL-List and Torrent activity
Size:  1.46 GB   |    Registered:  8 days   |    Completed:  0 times
Seeders:  422  [  0 KB/s  ]   Leechers:  22  [  0 KB/s  ]   Show peers in full details
 
     
 
 
Author Message

STALKER ®

Gender: Male

Longevity: 8 months 6 days

Posts: 731

Post 20-May-2020 10:34

[Quote]

Опасная роль Джин Сиберг / Seberg
Страна: Великобритания, США
Жанр: Триллер, драма, биография
Год выпуска: 2019
Продолжительность: 01:42:40-Перевод: Профессиональный (дублированный) (Itunes)
Субтитры: нет
Оригинальная аудиодорожка: нет-Режиссер: Бенедикт Эндрюс / Benedict Andrews
В ролях: Кристен Стюарт, Джек О`Коннелл, Маргарет Куэлли, Зази Битц, Винс Вон, Энтони Маки, Стивен Рут, Иван Атталь, Колм Мини, Сер`Дариус Блэйн, Гэбриел Скай, Виктория Барабаш-Описание: Конец 60-х. Красавица Джин Сиберг, любимица французской новой волны, возвращается в Лос-Анджелес. От предложений новых ролей нет отбоя, она - новая икона Голливуда. Но внезапный головокружительный роман с лидером партии Черные пантеры делают Джин мишенью спецслужб. Круглосуточная слежка ФБР и провокации грозят разрушить не только ее карьеру, но и жизнь.-Качество видео: WEB-DLRip исх: Seberg.2019.1080p.WEB-DL.H264.AC3-EVO
Формат видео: AVI
Видео: 720x304 (2.37:1), 23.976 fps, XviD build 73 ~1643 kbps avg, 0.313 bit/pixel
Аудио: 48 kHz, AC3 Dolby Digital, 3/2 (L,C,R,l,r) + LFE ch, ~384 kbps

MediaInfo

Общее
Полное имя : G:TorrentsFilesSeberg.2019.WEB-DLRip.1.46Gb.MegaPeer.avi
Формат : AVI
Формат/Информация : Audio Video Interleave
Размер файла : 1,46 Гбайт
Продолжительность : 1 ч. 42 м.
Общий поток : 2035 Кбит/сек
Программа кодирования : VirtualDubMod 1.5.10.3 | www.virtualdub-fr.org || (build 2550/release)
Библиотека кодирования : VirtualDubMod build 2550/release
Авторское право : MegaPeer
Видео
Идентификатор : 0
Формат : MPEG-4 Visual
Профиль формата : Advanced Simple@L5
Настройки формата : BVOP1 / Custom Matrix
Параметр BVOP формата : 1
Параметр QPel формата : Нет
Параметр GMC формата : Без точки перехода
Параметр матрицы формата : Выборочная
Идентификатор кодека : XVID
Идентификатор кодека/Подсказка : XviD
Продолжительность : 1 ч. 42 м.
Битрейт : 1643 Кбит/сек
Ширина : 720 пикселей
Высота : 304 пикселя
Соотношение сторон : 2,35:1
Частота кадров : 23,976 (24000/1001) кадра/сек
Цветовое пространство : YUV
Субдискретизация насыщенности : 4:2:0
Битовая глубина : 8 бит
Тип развёртки : Прогрессивная
Метод сжатия : С потерями
Бит/(Пиксели*Кадры) : 0.313
Размер потока : 1,18 Гбайт (81%)
Библиотека кодирования : XviD 73
Аудио
Идентификатор : 1
Формат : AC-3
Формат/Информация : Audio Coding 3
Коммерческое название : Dolby Digital
Идентификатор кодека : 2000
Продолжительность : 1 ч. 42 м.
Вид битрейта : Постоянный
Битрейт : 384 Кбит/сек
Каналы : 6 каналов
ChannelLayout : L R C LFE Ls Rs
Частота : 48,0 КГц
Частота кадров : 31,250 кадров/сек (1536 SPF)
Метод сжатия : С потерями
Размер потока : 282 Мбайт (19%)
Выравнивание : Разделение по промежуткам
Продолжительность промежутка : 42 мс. (1,00 видеокадр)
Время предзагрузки промежутка : 500 мс.
ServiceKind/String : Complete Main

Скриншоты

--Релиз группа: Filmgrad.Ru ->
[filmgrad.ru].t148115.torrent 
Torrent: Registered [ 2020-05-20 10:34 ] · 36B6F0BB491892E6C1FFA3EB38C75FF51E3E0CA3

Download .torrent

Download

15 KB

Status: checked
Completed: 0 times
Size: 1.46 GB
Оценка:  5 (Голосов: 1)
Поблагодарили: 0  Спасибо
terms.php
[Profile] [PM]
Display posts:    
Reply to topic

Current time is: 29-May 03:35

All times are UTC + 3



You cannot post new topics in this forum
You cannot reply to topics in this forum
You cannot edit your posts in this forum
You cannot delete your posts in this forum
You cannot vote in polls in this forum
You cannot attach files in this forum
You can download files in this forum