Вперёд / Onward [2020, мультфильм, фэнтези, комедия, приключения, семейный, BDRip 1080p | iTunes]

Reply to topic
DL-List and Torrent activity
Size:  7.8 GB   |    Registered:  1 month 23 days   |    Completed:  1 time

Seeders:

Username ULR UL DL UL speed DL speed
NewGod 0 0- 0- 0- 0-
shows data only for the current session
 
     
 
 
Author Message

dybrik13 ®

Gender: Male

Longevity: 1 year 5 months

Posts: 7120

Location: Киев

Post 19-May-2020 18:06

[Quote]

Вперёд / Onward- Оригинальное название: Onward
Год выхода: 2020
Выпущено: США
Студия: Pixar Animation Studios, Walt Disney Pictures
Продолжительность:: 01:42:21
Жанр: Мультфильм, фэнтези, комедия, приключения, семейный
Перевод: Дублированый | iTunes
Режиссер: Дэн Скэнлон
В ролях: : Том Холланд, Крис Пратт, Джулия Луис-Дрейфус, Джон Ратценбергер, Октавия Спенсер, Мэл Родригез, Лина Уэйте, Али Вонг, Грэй Гриффин, Трейси Ульман-Когда-то давно в сказочном мире царила магия, но после открытия электричества маги стали не нужны, и развитие пошло по техногенному пути. Теперь эльфы, тролли, гоблины, мантикоры, феи, кентавры и единороги летают на самолетах, пользуются автомобилями и мобильниками и ведут в целом прозаичную жизнь. Братья-эльфы Иэн и Барли Лайтфуты воспитывались одной мамой, потому что их отец умер, когда они были ещё совсем маленькими. На 16-летие Иэну достаётся посох отца, и магическое заклинание, которое должно вернуть того к жизни на один день, но волшебный кристалл исчезает, воскресив только нижнюю половину папы. Барли, большой любитель квестов, невероятно рад — прихватив полупапу, братья отправляются в приключение на поиски другого кристалла.
Качество: BDRip 1080p
Формат: MKV
Видео: MPEG-4 AVC, 1920x804, 9887 Kbit/s, 23.976 fps
Аудио #01: 48 kHz, AC3, 5.1, 384 Kbps | iTunes | RUS |
Аудио #02: 48 kHz, AC3, 5.1, 640 Kbps | Оригинал | ENG |
Субтитры: Русские (Full), английские

MI

General
Unique ID : 313840660532246620081862226445888835217 (0xEC1B833900869361A1E2E6A9574ACE91)
Complete name : E:Video111Onward.2020.BDRip.1080p.seleZen.mkv
Format : Matroska
Format version : Version 4
File size : 7.80 GiB
Duration : 1 h 42 min
Overall bit rate : 10.9 Mb/s
Movie name : Onward 2020 from селезень
Encoded date : UTC 2020-05-12 04:18:52
Writing application : mkvmerge v40.0.0 ('Old Town Road + Pony') 64-bit
Writing library : libebml v1.3.9 + libmatroska v1.5.2
Cover : Yes
Attachments : cover.jpg
Video
ID : 1
Format : AVC
Format/Info : Advanced Video Codec
Format profile : High@L4.1
Format settings : CABAC / 5 Ref Frames
Format settings, CABAC : Yes
Format settings, Reference : 5 frames
Codec ID : V_MPEG4/ISO/AVC
Duration : 1 h 42 min
Bit rate : 9 887 kb/s
Width : 1 920 pixels
Height : 804 pixels
Display aspect ratio : 2.40:1
Frame rate mode : Constant
Frame rate : 23.976 (24000/1001) FPS
Color space : YUV
Chroma subsampling : 4:2:0
Bit depth : 8 bits
Scan type : Progressive
Bits/(Pixel*Frame) : 0.267
Stream size : 7.07 GiB (91%)
Title : MTeam
Writing library : x264 core 157 r2938 2b00a84 TnP@MTeam Mod
Encoding settings : cabac=1 / ref=5 / deblock=1:-3:-3 / analyse=0x3:0x133 / me=umh / subme=10 / psy=1 / psy_rd=1.05:0.00 / mixed_ref=1 / me_range=32 / chroma_me=1 / trellis=2 / 8x8dct=1 / cqm=0 / deadzone=21,11 / fast_pskip=0 / chroma_qp_offset=-2 / threads=12 / lookahead_threads=2 / sliced_threads=0 / nr=0 / decimate=0 / interlaced=0 / bluray_compat=0 / constrained_intra=0 / bframes=8 / b_pyramid=2 / b_adapt=2 / b_bias=0 / direct=3 / weightb=1 / open_gop=0 / weightp=2 / keyint=250 / keyint_min=24 / scenecut=40 / intra_refresh=0 / rc_lookahead=250 / rc=crf / mbtree=0 / crf=16.8 / qcomp=0.60 / qpmin=0 / qpmax=69 / qpstep=4 / vbv_maxrate=62500 / vbv_bufsize=78125 / crf_max=0.0 / nal_hrd=none / filler=0 / ip_ratio=1.30 / pb_ratio=1.20 / aq=3:0.80
Language : English
Default : Yes
Forced : No
Color range : Limited
Color primaries : BT.709
Matrix coefficients : BT.709
Audio #1
ID : 2
Format : AC-3
Format/Info : Audio Coding 3
Commercial name : Dolby Digital
Codec ID : A_AC3
Duration : 1 h 42 min
Bit rate mode : Constant
Bit rate : 384 kb/s
Channel(s) : 6 channels
Channel layout : L R C LFE Ls Rs
Sampling rate : 48.0 kHz
Frame rate : 31.250 FPS (1536 SPF)
Compression mode : Lossy
Stream size : 281 MiB (4%)
Title : iTunes
Language : Russian
Service kind : Complete Main
Default : Yes
Forced : Yes
Audio #2
ID : 3
Format : AC-3
Format/Info : Audio Coding 3
Commercial name : Dolby Digital
Codec ID : A_AC3
Duration : 1 h 42 min
Bit rate mode : Constant
Bit rate : 640 kb/s
Channel(s) : 6 channels
Channel layout : L R C LFE Ls Rs
Sampling rate : 48.0 kHz
Frame rate : 31.250 FPS (1536 SPF)
Compression mode : Lossy
Stream size : 469 MiB (6%)
Title : Original
Language : English
Service kind : Complete Main
Default : No
Forced : No
Text #1
ID : 4
Format : UTF-8
Codec ID : S_TEXT/UTF8
Codec ID/Info : UTF-8 Plain Text
Duration : 1 h 31 min
Bit rate : 113 b/s
Count of elements : 1556
Stream size : 76.3 KiB (0%)
Title : Full
Language : Russian
Default : No
Forced : No
Text #2
ID : 5
Format : UTF-8
Codec ID : S_TEXT/UTF8
Codec ID/Info : UTF-8 Plain Text
Duration : 1 h 35 min
Bit rate : 75 b/s
Count of elements : 1904
Stream size : 53.0 KiB (0%)
Language : English
Default : No
Forced : No
Menu
00:00:00.686 : en:Studio Logo
00:00:49.686 : en:Long ago
00:03:04.686 : en:Title Sequence
00:03:09.686 : en:Ian's morning
00:05:03.686 : en:Officer Bronco comes to Ligjtfoots
00:07:03.686 : en:Ian meet Dad's friend
00:08:14.686 : en:Making a list
00:09:34.686 : en:Ian starts his day
00:12:44.686 : en:Ian misses his Dad
00:14:53.686 : en:A gift from Dad
00:19:17.686 : en:Ian is at his room
00:20:38.686 : en:Barley comes up with something
00:23:46.686 : en:Barley drives his car
00:25:34.686 : en:Learning magic
00:27:25.686 : en:The boys look for the Manticore
00:31:21.686 : en:The Manticore comes back
00:32:49.686 : en:Laurel worries about the boys
00:36:33.686 : en:Guinevere gets a trouble
00:39:34.686 : en:Ian tries magic again
00:42:48.686 : en:The Manticore talks to Laurel
00:44:00.686 : en:Ian drives Guinevere
00:47:48.686 : en:The spell wears off
00:51:43.686 : en:Barley argues with Ian
00:54:59.686 : en:Grecklin of the Pawn shop
00:56:07.686 : en:Bronco calls Laurel
00:57:24.686 : en:Raven's Point
01:03:06.686 : en:Bronco chases the boys
01:07:05.686 : en:The boys follow the birds
01:08:49.686 : en:Ian likes the spell
01:10:06.686 : en:Laurel encounters Pixie Dusters
01:11:12.686 : en:Barley talks about Dad
01:13:30.686 : en:The boys are in dangerous
01:15:58.686 : en:Back where they started
01:17:59.686 : en:Barley cannot give it up
01:20:26.686 : en:It's curse
01:22:44.686 : en:I am a mighty warrior
01:24:26.686 : en:Ian's decision
01:26:59.686 : en:What Ian see
01:30:07.686 : en:Ian back to his school
01:32:53.686 : en:End Credits

Скриншоты

--Релиз группа: Filmgrad.Ru ->
[filmgrad.ru].t148105.torrent 
Torrent: Registered [ 2020-05-19 18:06 ] · 467ED839198609DE695D39CD4D98D6EBC12CEE02

Download .torrent

Download

21 KB

Status: checked
Completed: 1 times
Size: 7.8 GB
Оценка:  5 (Голосов: 1)
Поблагодарили: 1  Спасибо   (список)
terms.php
[Profile] [PM]
Display posts:    
Reply to topic

Current time is: 12-Jul 09:33

All times are UTC + 3



You cannot post new topics in this forum
You cannot reply to topics in this forum
You cannot edit your posts in this forum
You cannot delete your posts in this forum
You cannot vote in polls in this forum
You cannot attach files in this forum
You can download files in this forum