Драконы с острова Комодо. История любви / Komodo: Sex And Dragons (2018) DVB

Reply to topic
DL-List and Torrent activity
Size:  1.22 GB   |    Registered:  2 months 7 days   |    Completed:  2 times
Seeders:  12  [  0 KB/s  ]   Leechers:  19  [  0 KB/s  ]   Show peers in full details
 
     
 
 
Author Message

dybrik13 ®

Gender: Male

Longevity: 1 year 5 months

Posts: 7120

Location: Киев

Post 05-May-2020 07:26

[Quote]

Драконы с острова Комодо. История любви / Komodo: Sex And Dragons- Оригинальное название: Komodo: Sex And Dragons
Год выхода: 2018
Жанр: Документальный, природа, флора, фауна
Режиссер: Гийом Левис / Guillaume Levis-На удаленном архипелаге у побережья Индонезии жизненные трудности переживают легендарные комодские драконы.
Они живут в тяжелых условиях, воды и еды постоянно не хватает, и за каждую самку сражаются по четыре взрослых самца.
Поэтому самые крупные в мире ящерицы вынуждены изобретать необычные способы борьбы за власть и выживание.
Релиз группа: Filmgrad.Ru ->
Страна: Франция
Студия: InterScoop Production
Продолжительность: 00:51:26
Перевод: Профессиональный (одноголосый закадровый) СВ-Дубль
Кодек: AVC/H.264
Качество: DVB
Видео: 720x576 (16:9) AVC (H.264) Main@L3, ~ 3031 kbps, 25 fps
Звук: Русский 48 kHz, MPEG Layer 2, 2 ch, ~192.00 kbps avg

MediaInfo

Complete name : F:НаладкиSD-фильмыДраконы с острова Комодо_ История любви.ts
Format : MPEG-TS
File size : 1.22 GiB
Duration : 51 min 26 s
Overall bit rate mode : Variable
Overall bit rate : 3 393 kb/s
Video
ID : 1577 (0x629)
Menu ID : 9006 (0x232E)
Format : AVC
Format/Info : Advanced Video Codec
Format profile : Main@L3
Format settings : CABAC / 4 Ref Frames
Format settings, CABAC : Yes
Format settings, Reference : 4 frames
Codec ID : 27
Duration : 51 min 26 s
Bit rate : 3 031 kb/s
Width : 720 pixels
Height : 576 pixels
Display aspect ratio : 16:9
Frame rate : 25.000 FPS
Standard : Component
Color space : YUV
Chroma subsampling : 4:2:0
Bit depth : 8 bits
Scan type : Interlaced
Scan type, store method : Separated fields
Scan order : Top Field First
Bits/(Pixel*Frame) : 0.292
Stream size : 1.09 GiB (89%)
Color range : Limited
Color primaries : BT.601 PAL
Transfer characteristics : BT.470 System B/G
Matrix coefficients : BT.470 System B/G
Audio
ID : 1578 (0x62A)
Menu ID : 9006 (0x232E)
Format : MPEG Audio
Format version : Version 1
Format profile : Layer 2
Codec ID : 3
Duration : 51 min 26 s
Bit rate mode : Constant
Bit rate : 192 kb/s
Channel(s) : 2 channels
Sampling rate : 48.0 kHz
Frame rate : 41.667 FPS (1152 SPF)
Compression mode : Lossy
Delay relative to video : -40 ms
Stream size : 70.6 MiB (6%)
Language : Russian
Text
ID : 1579 (0x62B)-888
Menu ID : 9006 (0x232E)
Format : Teletext Subtitle
Language : Russian
Other
ID : 1579 (0x62B)-100
Menu ID : 9006 (0x232E)
Format : Teletext
Language : Russian

Скриншоты

[filmgrad.ru].t147528.torrent 
Torrent: Registered [ 2020-05-05 07:26 ] · 960323A1F83380A974C10BD692E2015D61C807E4

Download .torrent

Download

13 KB

Status: checked
Completed: 2 times
Size: 1.22 GB
Оценка:  5 (Голосов: 1)
Поблагодарили: 0  Спасибо
terms.php
[Profile] [PM]
Display posts:    
Reply to topic

Current time is: 12-Jul 08:45

All times are UTC + 3



You cannot post new topics in this forum
You cannot reply to topics in this forum
You cannot edit your posts in this forum
You cannot delete your posts in this forum
You cannot vote in polls in this forum
You cannot attach files in this forum
You can download files in this forum