Queen История Богемской Рапсодии [2004, Музыка, Документальный, Hard Rock, HDTVRip 720р]

Reply to topic
DL-List and Torrent activity
Size:  1.14 GB   |    Registered:  2 months 22 days   |    Completed:  0 times
Seeders:  14  [  0 KB/s  ]   Leechers:  14  [  0 KB/s  ]   Show peers in full details
 
     
 
 
Author Message

dybrik13 ®

Gender: Male

Longevity: 1 year 5 months

Posts: 7120

Location: Киев

Post 19-Apr-2020 22:45

[Quote]

Queen История Богемской Рапсодии- Название: Queen История Богемской Рапсодии
Год выхода: 2004
Жанр: Музыка, Документальный, Hard Rock-Bohemian Rhapsody многие считают величайшим творением Фредди Меркьюри (Freddie Mercury) и группы Queen. Необычная во всех отношениях композиция является одной из наиболее загадочных песен в истории рок-музыки. Вот уже несколько десятилетий меломаны пытаются разгадать смысл текста, а критики восторгаются удивительно гармоничным сочетанием жанров, которым, казалось бы, не место в одном произведении.
О Bohemian Rhapsody сложено множество мифов и легенд. Песня вызывает массу вопросов, касающихся названия, отдельных фраз, персонажей и образов. В ее истории были скандалы и невероятные достижения. Она становилась источником вдохновения для рок-групп, писателей, режиссеров и прочих людей искусства. Словом, это грандиозное творение великого музыканта, достойное масштабного изучения.
Выпущено: Великобритания
Продолжительность: 00:56:22
Озвучивание: Оригинальная аудиодорожка
Субтитры: Русские
Формат: MKV
Качество: HDTVRip 720р
Видео: 1280x720, MPEG4/ISO/AVC, High@L4, 50,000 кадров/сек, ~5698 Кбит/сек
Аудио: 48 kHz, AC3 Dolby Digital, 2/0 (L,R) ch, ~192.00 kbps avg Оригинальная аудиодорожка

Медиа инфо:

Общее
Уникальный идентификатор : 179966251204164538604130409514807223951 (0x87643D3D58ACE0A0909A0DD4D59A668F)
Полное имя : C:\Users\Данияр\Documents\µTorrent\Раздача\Queen История Богемской Рапсодии.daniyar.esmuhanov\Queen История Богемской Рапсодии (документальный, музыка) 2004.mkv
Формат : Matroska
Версия формата : Version 4
Размер файла : 1,14 Гбайт
Продолжительность : 56 м. 22 с.
Общий поток : 2894 Кбит/сек
Название фильма : Автор рипа: Есмуханов Данияр Исламбекович | daniyar.esmuhanov
Дата кодирования : UTC 2020-04-14 23:50:54
Программа кодирования : mkvmerge v8.3.0 ('Over the Horizon') 64bit
Библиотека кодирования : libebml v1.3.1 + libmatroska v1.4.2
Видео
Идентификатор : 1
Формат : AVC
Формат/Информация : Advanced Video Codec
Профиль формата : High@L3.2
Настройки формата : CABAC / 4 Ref Frames
Параметр CABAC формата : Да
Параметр RefFrames формата : 4 кадра
Идентификатор кодека : V_MPEG4/ISO/AVC
Продолжительность : 56 м. 22 с.
Битрейт : Переменный битрейт: 62,5 Мбит/сек | 2698 Кбит/сек | 5698 Кбит/сек
Ширина : 1280 пикселей
Высота : 720 пикселей
Соотношение сторон : 16:9
Режим частоты кадров : Постоянный
Частота кадров : 50,000 кадров/сек
Цветовое пространство : YUV
Субдискретизация насыщенности : 4:2:0
Битовая глубина : 8 бит
Тип развёртки : Прогрессивная
Бит/(Пиксели*Кадры) : 0.059
Размер потока : 1,06 Гбайт (93%)
Заголовок : Автор рипа: Есмуханов Данияр Исламбекович | daniyar.esmuhanov
Библиотека кодирования : x264 core 152 r2851 MVGroup
Настройки программы : cabac=1 / ref=3 / deblock=1:0:0 / analyse=0x3:0x113 / me=umh / subme=9 / psy=1 / psy_rd=1.00:0.00 / mixed_ref=1 / me_range=24 / chroma_me=1 / trellis=1 / 8x8dct=1 / cqm=0 / deadzone=21,11 / fast_pskip=0 / chroma_qp_offset=-2 / threads=3 / lookahead_threads=1 / sliced_threads=0 / nr=0 / decimate=1 / interlaced=0 / bluray_compat=0 / constrained_intra=0 / bframes=6 / b_pyramid=2 / b_adapt=2 / b_bias=0 / direct=1 / weightb=1 / open_gop=0 / weightp=2 / keyint=500 / keyint_min=50 / scenecut=40 / intra_refresh=0 / rc_lookahead=40 / rc=crf / mbtree=1 / crf=20.0 / qcomp=0.60 / qpmin=0 / qpmax=69 / qpstep=4 / ip_ratio=1.40 / aq=1:1.00
Язык : English
Default : Да
Forced : Да
Цветовой диапазон : Limited
Основные цвета : BT.709
Характеристики трансфера : BT.709
Коэффициенты матрицы : BT.709
Аудио
Идентификатор : 2
Формат : AC-3
Формат/Информация : Audio Coding 3
Коммерческое название : Dolby Digital
Идентификатор кодека : A_AC3
Продолжительность : 56 м. 22 с.
Вид битрейта : Постоянный
Битрейт : 192 Кбит/сек
Каналы : 2 канала
ChannelLayout : L R
Частота : 48,0 КГц
Частота кадров : 31,250 кадров/сек (1536 SPF)
Метод сжатия : С потерями
Размер потока : 77,4 Мбайт (7%)
Язык : English
ServiceKind/String : Complete Main
Default : Да
Forced : Да
Текст
Идентификатор : 3
Формат : UTF-8
Идентификатор кодека : S_TEXT/UTF8
Идентификатор кодека/Информация : UTF-8 Plain Text
Продолжительность : 56 м. 19 с.
Битрейт : 144 бит/сек
ElementCount : 901
Размер потока : 59,5 Кбайт (0%)
Язык : Russian
Default : Да
Forced : Да

Скриншоты






[filmgrad.ru].t146831.torrent 
Torrent: Registered [ 2020-04-19 22:45 ] · 9B03D50CD077E08CF532984DA47EE2B67BB023C7

Download .torrent

Download

19 KB

Status: checked
Completed: 0 times
Size: 1.14 GB
Оценка:  5 (Голосов: 1)
Поблагодарили: 0  Спасибо
terms.php
[Profile] [PM]
Display posts:    
Reply to topic

Current time is: 12-Jul 10:10

All times are UTC + 3



You cannot post new topics in this forum
You cannot reply to topics in this forum
You cannot edit your posts in this forum
You cannot delete your posts in this forum
You cannot vote in polls in this forum
You cannot attach files in this forum
You can download files in this forum