Мирзакарим Норбеков | Тайнопись дервишей (2019) HDRip [H.264/1080p-LQ]

Reply to topic
DL-List and Torrent activity
Size:  1.83 GB   |    Registered:  3 months 15 days   |    Completed:  0 times

Seeder not seen: Never

Leechers:  28  [  0 KB/s  ]   Show peers in full details
 
     
 
 
Author Message

dybrik13 ®

Gender: Male

Longevity: 1 year 5 months

Posts: 7120

Location: Киев

Post 27-Mar-2020 18:04

[Quote]

Мирзакарим Норбеков | Тайнопись дервишей- Автор (режиссер): Мирзакарим Норбеков
Производство: Центр Норбекова
Жанр: Саморазвитие-Запись беседы с Мирзакаримом Норбековым про тайнопись дервишей в прозе.
Продолжительность: 01:45:39
Качество видео: HDRip
Видео: AVC/H.264, 1920x1080, ~2225 Kbps
Аудио: AAC, 2 ch, 253 Kbps, VBR

Mediainfo:

General
Complete name : C:\Torrents\Мирзакарим Норбеков - Тайнопись дервишей (2019)\Тайнопись дервишей 1080p.mp4
Format : MPEG-4
Format profile : Base Media / Version 2
Codec ID : mp42 (mp42/mp41/isom/avc1)
File size : 1.83 GiB
Duration : 1 h 45 min
Overall bit rate mode : Variable
Overall bit rate : 2 482 kb/s
Encoded date : UTC 2019-12-13 15:48:41
Tagged date : UTC 2019-12-13 15:48:41
Video
ID : 1
Format : AVC
Format/Info : Advanced Video Codec
Format profile : High@L4
Format settings : CABAC / 5 Ref Frames
Format settings, CABAC : Yes
Format settings, Reference : 5 frames
Codec ID : avc1
Codec ID/Info : Advanced Video Coding
Duration : 1 h 45 min
Bit rate : 2 225 kb/s
Width : 1 920 pixels
Height : 1 080 pixels
Display aspect ratio : 16:9
Frame rate mode : Constant
Frame rate : 25.000 FPS
Color space : YUV
Chroma subsampling : 4:2:0
Bit depth : 8 bits
Scan type : Progressive
Bits/(Pixel*Frame) : 0.043
Stream size : 1.64 GiB (90%)
Writing library : x264 core 157 r10 d4099dd
Encoding settings : cabac=1 / ref=5 / deblock=1:0:0 / analyse=0x3:0x113 / me=hex / subme=8 / psy=1 / psy_rd=1.00:0.00 / mixed_ref=1 / me_range=16 / chroma_me=1 / trellis=2 / 8x8dct=1 / cqm=0 / deadzone=21,11 / fast_pskip=1 / chroma_qp_offset=-2 / threads=34 / lookahead_threads=5 / sliced_threads=0 / nr=0 / decimate=1 / interlaced=0 / bluray_compat=0 / stitchable=1 / constrained_intra=0 / bframes=3 / b_pyramid=2 / b_adapt=2 / b_bias=0 / direct=3 / weightb=1 / open_gop=0 / weightp=2 / keyint=infinite / keyint_min=25 / scenecut=40 / intra_refresh=0 / rc_lookahead=50 / rc=crf / mbtree=1 / crf=20.0 / qcomp=0.60 / qpmin=5 / qpmax=69 / qpstep=4 / vbv_maxrate=5500 / vbv_bufsize=15000 / crf_max=0.0 / nal_hrd=none / filler=0 / ip_ratio=1.40 / aq=1:1.00
Encoded date : UTC 2019-12-13 15:48:41
Tagged date : UTC 2019-12-13 15:48:41
Color range : Limited
Color primaries : BT.709
Transfer characteristics : BT.709
Matrix coefficients : BT.709
Codec configuration box : avcC
Audio
ID : 2
Format : AAC LC
Format/Info : Advanced Audio Codec Low Complexity
Codec ID : mp4a-40-2
Duration : 1 h 45 min
Bit rate mode : Variable
Bit rate : 253 kb/s
Channel(s) : 2 channels
Channel layout : L R
Sampling rate : 48.0 kHz
Frame rate : 46.875 FPS (1024 SPF)
Compression mode : Lossy
Stream size : 191 MiB (10%)
Encoded date : UTC 2019-12-13 15:48:41
Tagged date : UTC 2019-12-13 15:48:41

Дополнительная информация:

Хотите, прогуляемся вместе в одно из подземелий, где хранятся древние тайны?
Пристроимся в попутчики к Омару Хайяму, которого принято считать только поэтом. Хотя он был не менее знаменитым врачом, астрономом, математиком, государственным деятелем и много еще кем. Но сейчас мы с вами чуточку познакомимся с Омаром Хайямом — виртуозным шифровальщиком тайных знаний.
Великий поэт писал: «Я спрятал свою истину за семью печатями и сорока замками, чтобы злое стадо людей не использовало эту истину во имя зла».
Многие читают рубай Хайяма.
Наслаждаясь его стихами, вы восхищаетесь: «Какая поэзия! Какая утонченность восприятия мира! Как он понял всю тщету человеческих усилий, всю жалкую ничтожность бытия!».
В действительности он просто подыгрывает вашим слабостям и сомнениям, вашему неверию и пассивности.
А другой думает, что Омар Хайям был забулдыгой и гулякой. Он ведь пишет о вине, женщинах, кабаках. И вы говорите жене, оправдывая свое поведение: «Молчи, дура! Омар пил, я тоже бутылек раздавил».
Омар Хайям перед каждым поставил зеркало в красивой рамке. И сотни лет обыватель любуется своим отражением. Ради того эту книжку и держит у себя.
А известно ли вам, что в те времена за глоток спиртного сразу четвертовали или сажали на кол? Тогда своя инквизиция была.
Омар Хайям был одним из величайших Мастеров.
«Вино» у Омара Хайяма, дорогие мои, означает «опьянение от познания истины».
Каждое слово в привычном для вас значении содержит скрытый смысл и рассчитано отнюдь не на логическое мышление. Потребуется несколько десятков страниц, чтобы разъяснить значение одного предложения, написанного таким языком.
Читая одну фразу, человек, мыслящий путем озарения, способен воспринять информацию, равную иногда целой библиотеке, забитой книгами от пола до потолка.
Прежде чем приступить к изучению тайнописи, нужно три года учиться тому, как учиться.
Вот, если хотите, малюсенький словарик языка тайнописи.
Влюбленный — это есть дервиш.
Принц — ученик.
Женщина — душа спящего.
Красавица — душа искателя.
Изменчивая красавица — страдания разума, которые дает душа.
Пьяный — дервиш, постигший истину.
Опьянение — просветление.
Чарка — сознание.
Кабак — место, где собираются для тренировки.
Кувшин — ум.
Осколок от кувшина — частичка опыта ушедших мастеров.
Виночерпий — дающий вино истины, то есть одно из обозначений Всевышнего.
Сад — процесс тренировки.
Дерево — мастер без учеников.
Дерево плодоносящее — наставник с учениками.
Гора — высший просветленный, приближенный к Высшему.
Холм — Наставник.
Утес — тот, кто был причиной начала обучения.
Глыба — мудрый.
Камень — староста тренирующихся.
Кольцо — крyr учеников.
Кольцо с драгоценным камнем — круг учеников, в котором присутствует высший Наставник.
Кольцо с сапфиром — практикующие упражнения Соломона.
Кольцо с изумрудом — практикующие упражнения Мухаммада.
Кольцо с алмазом — практикующие упражнения Моисея.
Ожерелье — мастер, который освоил все основные Школы.

И так далее.
Мастера для скрытой передачи информации друг другу во времени и пространстве используют 3001 слово.
Скриншоты:
[filmgrad.ru].t145915.torrent 
Torrent: Registered [ 2020-03-27 18:04 ] · 6723557A9E8351A385784474135AA5F1F3737127

Download .torrent

Download

19 KB

Status: checked
Completed: 0 times
Size: 1.83 GB
Оценка:  5 (Голосов: 1)
Поблагодарили: 0  Спасибо
terms.php
[Profile] [PM]
Display posts:    
Reply to topic

Current time is: 12-Jul 09:56

All times are UTC + 3



You cannot post new topics in this forum
You cannot reply to topics in this forum
You cannot edit your posts in this forum
You cannot delete your posts in this forum
You cannot vote in polls in this forum
You cannot attach files in this forum
You can download files in this forum